×

¿Problemas para descargar con Mozilla, EDGE? Deshabilita la opción "Abrir vinculos en una pestaña nueva" tal como lo muestra ésta imagen.

Glass (2019) REMUX 4K HDR Latino – CMHDD

3.542 vistas

Información de Glass (2019) REMUX 4K HDR Latino – CMHDD

Datos de la película

  • Calidad: 4K HDR
  • Audio: Español Latino AC3 5.1 BLURAY - Ingles AC3 5.1 BLURAY
  • Subtitulos: Español Latino PGS - Ingles PGS
  • Resolución: 3840x2160p
  • Formato: MKV
  • Codec: HEVC
  • Encoder: Dracarys
  • Mediainfo: Clic para Mostrar Datos Ver
  • Format                      : Matroska
    Format version              : Version 4
    File size                   : 64.0 GiB
    Duration                    : 2 h 9 min
    Overall bit rate mode       : Variable
    Overall bit rate            : 71.0 Mb/s
    Movie name                  : Glass (2019) REMUX 4K HDR Latino - CMHDD
    Encoded date                : UTC 2024-02-14 21:15:55
    Writing application         : mkvmerge v47.0.0 ('Black Flag') 64-bit
    Writing library             : libebml v1.3.10 + libmatroska v1.5.2
    Cover                       : Yes
    Attachments                 : cover.jpg

    Video
    ID                          : 1
    ID in the original source m : 4113 (0x1011)
    Format                      : HEVC
    Format/Info                 : High Efficiency Video Coding
    Format profile              : Main 10@L5.1@High
    HDR format                  : SMPTE ST 2086, HDR10 compatible
    Codec ID                    : V_MPEGH/ISO/HEVC
    Duration                    : 2 h 9 min
    Bit rate                    : 65.7 Mb/s
    Width                       : 3 840 pixels
    Height                      : 2 160 pixels
    Display aspect ratio        : 16:9
    Frame rate mode             : Constant
    Frame rate                  : 23.976 (24000/1001) FPS
    Color space                 : YUV
    Chroma subsampling          : 4:2:0 (Type 2)
    Bit depth                   : 10 bits
    Bits/(Pixel*Frame)          : 0.330
    Stream size                 : 59.2 GiB (93%)
    Default                     : Yes
    Forced                      : No
    Color range                 : Limited
    Color primaries             : BT.2020
    Transfer characteristics    : PQ
    Matrix coefficients         : BT.2020 non-constant
    Mastering display color pri : Display P3
    Mastering display luminance : min: 0.0050 cd/m2, max: 1000 cd/m2
    Maximum Content Light Level : 457 cd/m2
    Maximum Frame-Average Light : 182 cd/m2
    Original source medium      : Blu-ray

    Audio #1
    ID                          : 2
    ID in the original source m : 4352 (0x1100)
    Format                      : MLP FBA 16-ch
    Format/Info                 : Meridian Lossless Packing FBA with 16-channel presentation
    Commercial name             : Dolby TrueHD with Dolby Atmos
    Codec ID                    : A_TRUEHD
    Duration                    : 2 h 9 min
    Bit rate mode               : Variable
    Bit rate                    : 4 109 kb/s
    Maximum bit rate            : 7 326 kb/s
    Channel(s)                  : 8 channels
    Channel layout              : L R C LFE Ls Rs Lb Rb
    Sampling rate               : 48.0 kHz
    Frame rate                  : 1 200.000 FPS (40 SPF)
    Compression mode            : Lossless
    Stream size                 : 3.70 GiB (6%)
    Language                    : English
    Default                     : No
    Forced                      : No
    Original source medium      : Blu-ray
    Number of dynamic objects   : 11
    Bed channel count           : 1 channel
    Bed channel configuration   : LFE

    Audio #2
    ID                          : 3
    ID in the original source m : 4352 (0x1100)
    Format                      : AC-3
    Format/Info                 : Audio Coding 3
    Commercial name             : Dolby Digital
    Codec ID                    : A_AC3
    Duration                    : 2 h 9 min
    Bit rate mode               : Constant
    Bit rate                    : 448 kb/s
    Channel(s)                  : 6 channels
    Channel layout              : L R C LFE Ls Rs
    Sampling rate               : 48.0 kHz
    Frame rate                  : 31.250 FPS (1536 SPF)
    Compression mode            : Lossy
    Stream size                 : 413 MiB (1%)
    Language                    : English
    Service kind                : Complete Main
    Default                     : No
    Forced                      : No
    Original source medium      : Blu-ray

    Audio #3
    ID                          : 4
    ID in the original source m : 4353 (0x1101)
    Format                      : AC-3
    Format/Info                 : Audio Coding 3
    Commercial name             : Dolby Digital
    Codec ID                    : A_AC3
    Duration                    : 2 h 9 min
    Bit rate mode               : Constant
    Bit rate                    : 640 kb/s
    Channel(s)                  : 6 channels
    Channel layout              : L R C LFE Ls Rs
    Sampling rate               : 48.0 kHz
    Frame rate                  : 31.250 FPS (1536 SPF)
    Compression mode            : Lossy
    Delay relative to video     : 15 ms
    Stream size                 : 591 MiB (1%)
    Language                    : Spanish
    Service kind                : Complete Main
    Default                     : Yes
    Forced                      : No
    Original source medium      : Blu-ray

    Text #1
    ID                          : 5
    ID in the original source m : 4769 (0x12A1)
    Format                      : PGS
    Muxing mode                 : zlib
    Codec ID                    : S_HDMV/PGS
    Codec ID/Info               : Picture based subtitle format used on BDs/HD-DVDs
    Duration                    : 2 h 8 min
    Bit rate                    : 26.9 kb/s
    Frame rate                  : 0.318 FPS
    Count of elements           : 2450
    Stream size                 : 24.7 MiB (0%)
    Language                    : Spanish
    Default                     : No
    Forced                      : No
    Original source medium      : Blu-ray

    Text #2
    ID                          : 6
    ID in the original source m : 4771 (0x12A3)
    Format                      : PGS
    Muxing mode                 : zlib
    Codec ID                    : S_HDMV/PGS
    Codec ID/Info               : Picture based subtitle format used on BDs/HD-DVDs
    Duration                    : 2 h 4 min
    Bit rate                    : 1 620 b/s
    Frame rate                  : 0.017 FPS
    Count of elements           : 124
    Stream size                 : 1.45 MiB (0%)
    Language                    : Spanish
    Default                     : No
    Forced                      : No
    Original source medium      : Blu-ray

    Menu
    00:00:00.000                : en:Capítulo 01
    00:04:08.456                : en:Capítulo 02
    00:09:36.367                : en:Capítulo 03
    00:14:30.077                : en:Capítulo 04
    00:19:49.897                : en:Capítulo 05
    00:24:41.062                : en:Capítulo 06
    00:29:45.825                : en:Capítulo 07
    00:35:00.598                : en:Capítulo 08
    00:39:07.595                : en:Capítulo 09
    00:47:28.220                : en:Capítulo 10
    00:57:16.224                : en:Capítulo 11
    01:02:55.271                : en:Capítulo 12
    01:09:26.829                : en:Capítulo 13
    01:14:30.299                : en:Capítulo 14
    01:21:43.773                : en:Capítulo 15
    01:30:10.530                : en:Capítulo 16
    01:38:15.514                : en:Capítulo 17
    01:44:08.742                : en:Capítulo 18
    01:54:07.215                : en:Capítulo 19
    02:03:00.289                : en:Capítulo 20

     

  • Peso: 64.0 GiB

Sinopsis

Descargar Glass (2019) 4K UHD HDR Latino, Mega, Google Drive. Continuando desde donde lo dejó «Múltiple», «Glass» sigue los pasos de David Dunn (Bruce Willis) en su búsqueda de la figura superhumana de «La Bestia». En la sombra, Elijah Price (Samuel L. Jackson) parece emerger como una figura clave que conoce los secretos de ambos. Secuela de «El protegido» y «Múltiple», de M. Night Shyamalan.

Ficha técnica

Video trailer de la película

Enlaces de descarga

Rip de Bluray

Descargar Glass (2019) REMUX 4K HDR Latino – CMHDD




Aportes de DPeliculasHDmega la pass es:dpeliculashdmega.org Aportes de CinemaniaHD la pass es:cinemaniahdd.com Aportes recientes:cinemaniahdd.net

Películas relacionadas

descargar Glass (2019) REMUX 4K HDR Latino – CMHDD 4K HDR 1080p gratis, Glass (2019) REMUX 4K HDR Latino – CMHDD 4K HDR mega 1 link, Glass (2019) REMUX 4K HDR Latino – CMHDD 4K HDR pelicula completa, descargar Glass (2019) REMUX 4K HDR Latino – CMHDD 4K HDR gratis en mega.

Glass (2019) REMUX 4K HDR Latino – CMHDD pelicula full hd, Glass (2019) REMUX 4K HDR Latino – CMHDD mega latino, Glass (2019) REMUX 4K HDR Latino – CMHDD 4k latino, Glass (2019) REMUX 4K HDR Latino – CMHDD pelicula completa, Glass (2019) REMUX 4K HDR Latino – CMHDD descargar gratis, descargar Glass (2019) REMUX 4K HDR Latino – CMHDD pelicula latino, Glass (2019) REMUX 4K HDR Latino – CMHDD 1 link mega, Glass (2019) REMUX 4K HDR Latino – CMHDD 1 link google drive, Glass (2019) REMUX 4K HDR Latino – CMHDD hd 1080p latino.
Comentarios 0