Glass (2019) REMUX 1080p Latino

905 vistas
1 estrella2 estrellas3 estrellas4 estrellas5 estrellas (Ninguna valoración todavía)
Cargando…

Información de Glass (2019) REMUX 1080p Latino

Datos de la película

  • Calidad: Full 1080p
  • Audio: Español Latino AC3 5.1 BLURAY - DTS-HD Master 7.1 BLURAY
  • Subtitulos: Español Latino SRT- FORZADOS SRT
  • Resolución: 1920x1080p
  • Formato: MKV
  • Codec: H.264
  • Encoder: Dracarys
  • Mediainfo: Clic para Mostrar Datos Ver
  • Format                      : Matroska
    Format version              : Version 4
    File size                   : 31.2 GiB
    Duration                    : 2 h 9 min
    Overall bit rate mode       : Variable
    Overall bit rate            : 34.6 Mb/s
    Movie name                  : CinemaniaHDD.net
    Encoded date                : UTC 2019-04-10 23:37:44
    Writing application         : mkvmerge v30.1.0 ('Forever And More') 64-bit
    Writing library             : libebml v1.3.6 + libmatroska v1.4.9

    Video
    ID                          : 1
    Format                      : AVC
    Format/Info                 : Advanced Video Codec
    Format profile              : [email protected]
    Format settings             : CABAC / 4 Ref Frames
    Format settings, CABAC      : Yes
    Format settings, ReFrames   : 4 frames
    Format settings, GOP        : M=3, N=12
    Codec ID                    : V_MPEG4/ISO/AVC
    Duration                    : 2 h 9 min
    Bit rate mode               : Variable
    Bit rate                    : 29.5 Mb/s
    Maximum bit rate            : 38.6 Mb/s
    Width                       : 1 920 pixels
    Height                      : 1 080 pixels
    Display aspect ratio        : 16:9
    Frame rate mode             : Constant
    Frame rate                  : 23.976 (24000/1001) FPS
    Color space                 : YUV
    Chroma subsampling          : 4:2:0
    Bit depth                   : 8 bits
    Scan type                   : Progressive
    Bits/(Pixel*Frame)          : 0.593
    Stream size                 : 26.6 GiB (85%)
    Language                    : English
    Default                     : No
    Forced                      : No

    Audio #1
    ID                          : 2
    Format                      : DTS XLL
    Format/Info                 : Digital Theater Systems
    Commercial name             : DTS-HD Master Audio
    Codec ID                    : A_DTS
    Duration                    : 2 h 9 min
    Bit rate mode               : Variable
    Bit rate                    : 4 463 kb/s
    Channel(s)                  : 8 channels
    Channel layout              : C L R LFE Lb Rb Lss Rss
    Sampling rate               : 48.0 kHz
    Frame rate                  : 93.750 FPS (512 SPF)
    Bit depth                   : 24 bits
    Compression mode            : Lossless
    Stream size                 : 4.02 GiB (13%)
    Language                    : English
    Default                     : No
    Forced                      : No

    Audio #2
    ID                          : 3
    Format                      : AC-3
    Format/Info                 : Audio Coding 3
    Commercial name             : Dolby Digital
    Codec ID                    : A_AC3
    Duration                    : 2 h 9 min
    Bit rate mode               : Constant
    Bit rate                    : 640 kb/s
    Channel(s)                  : 6 channels
    Channel layout              : L R C LFE Ls Rs
    Sampling rate               : 48.0 kHz
    Frame rate                  : 31.250 FPS (1536 SPF)
    Bit depth                   : 16 bits
    Compression mode            : Lossy
    Stream size                 : 591 MiB (2%)
    Language                    : Spanish
    Service kind                : Complete Main
    Default                     : Yes
    Forced                      : Yes

    Text #1
    ID                          : 4
    Format                      : PGS
    Muxing mode                 : zlib
    Codec ID                    : S_HDMV/PGS
    Codec ID/Info               : Picture based subtitle format used on BDs/HD-DVDs
    Duration                    : 2 h 8 min
    Bit rate                    : 26.9 kb/s
    Count of elements           : 2450
    Stream size                 : 24.7 MiB (0%)
    Title                       : Completos-PGS
    Language                    : Spanish
    Default                     : No
    Forced                      : No

    Text #2
    ID                          : 5
    Format                      : PGS
    Muxing mode                 : zlib
    Codec ID                    : S_HDMV/PGS
    Codec ID/Info               : Picture based subtitle format used on BDs/HD-DVDs
    Duration                    : 2 h 4 min
    Bit rate                    : 1 620 b/s
    Count of elements           : 124
    Stream size                 : 1.45 MiB (0%)
    Title                       : FORCED-PGS
    Language                    : Spanish
    Default                     : No
    Forced                      : No

    Text #3
    ID                          : 6
    Format                      : UTF-8
    Codec ID                    : S_TEXT/UTF8
    Codec ID/Info               : UTF-8 Plain Text
    Duration                    : 2 h 8 min
    Bit rate                    : 42 b/s
    Count of elements           : 1225
    Stream size                 : 39.8 KiB (0%)
    Title                       : Completos-SRT
    Language                    : Spanish
    Default                     : No
    Forced                      : No

    Text #4
    ID                          : 7
    Format                      : UTF-8
    Codec ID                    : S_TEXT/UTF8
    Codec ID/Info               : UTF-8 Plain Text
    Duration                    : 2 h 4 min
    Bit rate                    : 2 b/s
    Count of elements           : 62
    Stream size                 : 2.08 KiB (0%)
    Title                       : Forzados-SRT
    Language                    : Spanish
    Default                     : Yes
    Forced                      : Yes

    Menu
    00:00:00.000                : en:Chapter 01
    00:04:08.456                : en:Chapter 02
    00:09:36.367                : en:Chapter 03
    00:14:30.077                : en:Chapter 04
    00:19:49.897                : en:Chapter 05
    00:24:41.062                : en:Chapter 06
    00:29:45.825                : en:Chapter 07
    00:35:00.598                : en:Chapter 08
    00:39:07.595                : en:Chapter 09
    00:47:28.220                : en:Chapter 10
    00:57:16.224                : en:Chapter 11
    01:02:55.271                : en:Chapter 12
    01:09:26.829                : en:Chapter 13
    01:14:30.299                : en:Chapter 14
    01:21:43.773                : en:Chapter 15
    01:30:10.530                : en:Chapter 16
    01:38:15.514                : en:Chapter 17
    01:44:08.742                : en:Chapter 18
    01:54:07.215                : en:Chapter 19
    02:03:00.289                : en:Chapter 20

  • Peso: 31.2 GiB

Sinopsis

Continuando desde donde lo dejó “Múltiple”, “Glass” sigue los pasos de David Dunn (Bruce Willis) en su búsqueda de la figura superhumana de “La Bestia”. En la sombra, Elijah Price (Samuel L. Jackson) parece emerger como una figura clave que conoce los secretos de ambos. Secuela de “El protegido” y “Múltiple”, de M. Night Shyamalan.

Ficha técnica

Video trailer de la película

Enlaces de descarga

Rip de Bluray

Descargar Glass (2019) REMUX 1080p Latino




Aportes de DPeliculasHDmega la pass es:dpeliculashdmega.org Aportes de CinemaniaHD la pass es:cinemaniahdd.com

Películas relacionadas

Comentarios 2
  • Brayan - 12 abril, 2019

    Muchas gracias 😀 —– tengo una duda, ¿a que hace referencia “REMUX”?

    • Dracarys - 21 abril, 2019

      calidad bluray sin modificaciones