×

¿Problemas para descargar con Mozilla, EDGE? Deshabilita la opción "Abrir vinculos en una pestaña nueva" tal como lo muestra ésta imagen.

Gladiador (2000) EXTENDED CUT 1080p Latino

2.188 vistas

Información de Gladiador (2000) EXTENDED CUT 1080p Latino

Datos de la película

  • Calidad: 1080p
  • Audio: Español Latino AC3 5.1 BLURAY - Ingles AC3 5.1 BLURAY
  • Subtitulos: Español Latino SRT - Ingles SRT
  • Resolución: 1920x816p
  • Formato: MKV
  • Codec: H.264
  • Encoder: CinefiloCool
  • Mediainfo: Clic para Mostrar Datos Ver
  • Gladiador (2000) EXTENDED 1080p Latino-CMHDD.mkv
    Format                      : Matroska
    Format version              : Version 4
    File size                   : 5.47 GiB
    Duration                    : 2 h 50 min
    Overall bit rate mode       : Variable
    Overall bit rate            : 4 579 kb/s
    Movie name                  : Gladiator (2000) CinemaniaHDD.Net
    Encoded date                : UTC 2023-02-08 16:09:39
    Writing application         : mkvmerge v56.1.0 ('My Friend') 64-bit
    Writing library             : libebml v1.4.2 + libmatroska v1.6.4
    Attachments                 : CINEMANIAHD.png

    Video
    ID                          : 1
    Format                      : AVC
    Format/Info                 : Advanced Video Codec
    Format profile              : High@L4.2
    Format settings             : CABAC / 5 Ref Frames
    Format settings, CABAC      : Yes
    Format settings, Reference  : 5 frames
    Codec ID                    : V_MPEG4/ISO/AVC
    Duration                    : 2 h 50 min
    Bit rate mode               : Variable
    Bit rate                    : 3 488 kb/s
    Width                       : 1 920 pixels
    Height                      : 816 pixels
    Display aspect ratio        : 2.35:1
    Frame rate mode             : Constant
    Frame rate                  : 23.976 (24000/1001) FPS
    Color space                 : YUV
    Chroma subsampling          : 4:2:0
    Bit depth                   : 8 bits
    Scan type                   : Progressive
    Bits/(Pixel*Frame)          : 0.093
    Stream size                 : 4.17 GiB (76%)
    Title                       : HD1080p [CinemaniaHDD]
    Writing library             : x264 core 163 r3059 b684ebe0
    Encoding settings           : cabac=1 / ref=5 / deblock=1:-1:-1 / analyse=0x3:0x133 / me=umh / subme=9 / psy=1 / psy_rd=1.00:0.15 / mixed_ref=1 / me_range=16 / chroma_me=1 / trellis=2 / 8x8dct=1 / cqm=0 / deadzone=21,11 / fast_pskip=1 / chroma_qp_offset=-3 / threads=24 / lookahead_threads=2 / sliced_threads=0 / nr=0 / decimate=1 / interlaced=0 / bluray_compat=0 / constrained_intra=0 / bframes=3 / b_pyramid=2 / b_adapt=2 / b_bias=0 / direct=3 / weightb=1 / open_gop=0 / weightp=2 / keyint=240 / keyint_min=24 / scenecut=40 / intra_refresh=0 / rc_lookahead=60 / rc=crf / mbtree=1 / crf=22.0 / qcomp=0.60 / qpmin=0 / qpmax=69 / qpstep=4 / vbv_maxrate=62500 / vbv_bufsize=78125 / crf_max=0.0 / nal_hrd=vbr / filler=0 / ip_ratio=1.40 / aq=1:1.00
    Default                     : Yes
    Forced                      : No
    Color range                 : Limited
    Color primaries             : BT.709
    Transfer characteristics    : BT.709
    Matrix coefficients         : BT.709

    Audio #1
    ID                          : 2
    Format                      : AC-3
    Format/Info                 : Audio Coding 3
    Commercial name             : Dolby Digital
    Codec ID                    : A_AC3
    Duration                    : 2 h 50 min
    Bit rate mode               : Constant
    Bit rate                    : 640 kb/s
    Channel(s)                  : 6 channels
    Channel layout              : L R C LFE Ls Rs
    Sampling rate               : 48.0 kHz
    Frame rate                  : 31.250 FPS (1536 SPF)
    Compression mode            : Lossy
    Delay relative to video     : -5 ms
    Stream size                 : 783 MiB (14%)
    Title                       : Español Latino [CinemaniaHDD]
    Language                    : Spanish
    Service kind                : Complete Main
    Default                     : Yes
    Forced                      : No

    Audio #2
    ID                          : 3
    Format                      : AC-3
    Format/Info                 : Audio Coding 3
    Commercial name             : Dolby Digital
    Codec ID                    : A_AC3
    Duration                    : 2 h 50 min
    Bit rate mode               : Constant
    Bit rate                    : 448 kb/s
    Channel(s)                  : 6 channels
    Channel layout              : L R C LFE Ls Rs
    Sampling rate               : 48.0 kHz
    Frame rate                  : 31.250 FPS (1536 SPF)
    Compression mode            : Lossy
    Delay relative to video     : -5 ms
    Stream size                 : 548 MiB (10%)
    Title                       : Ingles [CinemaniaHDD]
    Language                    : English
    Service kind                : Complete Main
    Default                     : No
    Forced                      : No

    Text #1
    ID                          : 4
    Format                      : UTF-8
    Codec ID                    : S_TEXT/UTF8
    Codec ID/Info               : UTF-8 Plain Text
    Duration                    : 2 h 45 min
    Bit rate                    : 0 b/s
    Count of elements           : 12
    Stream size                 : 499 Bytes (0%)
    Title                       : Forzados-SRT [CinemaniaHDD]
    Language                    : Spanish
    Default                     : Yes
    Forced                      : No

    Text #2
    ID                          : 5
    Format                      : UTF-8
    Codec ID                    : S_TEXT/UTF8
    Codec ID/Info               : UTF-8 Plain Text
    Duration                    : 2 h 45 min
    Bit rate                    : 35 b/s
    Count of elements           : 1338
    Stream size                 : 42.3 KiB (0%)
    Title                       : Español-SRT [CinemaniaHDD]
    Language                    : Spanish
    Default                     : No
    Forced                      : No

    Text #3
    ID                          : 6
    Format                      : UTF-8
    Codec ID                    : S_TEXT/UTF8
    Codec ID/Info               : UTF-8 Plain Text
    Duration                    : 2 h 40 min
    Bit rate                    : 34 b/s
    Count of elements           : 1326
    Stream size                 : 40.5 KiB (0%)
    Title                       : Ingles-SRT [CinemaniaHDD]
    Language                    : English
    Default                     : No
    Forced                      : No

    Menu
    00:00:00.000                : :Chapter 1
    00:07:13.109                : :Chapter 2
    00:12:49.945                : :Chapter 3
    00:18:44.633                : :Chapter 4
    00:23:29.167                : :Chapter 5
    00:32:58.236                : :Chapter 6
    00:37:34.720                : :Chapter 7
    00:40:50.583                : :Chapter 8
    00:47:32.568                : :Chapter 9
    00:51:35.685                : :Chapter 10
    00:55:44.225                : :Chapter 11
    01:02:21.164                : :Chapter 12
    01:09:56.869                : :Chapter 13
    01:19:08.211                : :Chapter 14
    01:29:21.491                : :Chapter 15
    01:37:11.669                : :Chapter 16
    01:41:35.641                : :Chapter 17
    01:51:58.763                : :Chapter 18
    01:56:36.082                : :Chapter 19
    02:00:43.371                : :Chapter 20
    02:04:42.026                : :Chapter 21
    02:12:18.941                : :Chapter 22
    02:13:32.431                : :Chapter 23
    02:24:15.281                : :Chapter 24
    02:28:48.554                : :Chapter 25
    02:34:20.636                : :Chapter 26
    02:38:43.398                : :Chapter 27
    02:42:57.527                : :Chapter 28

  • Peso: 5.47 GiB

Sinopsis

Gladiador (2000) EXTENDED CUT 1080p Latino. Máximo, General de las Legiones Romanas, es querido por todos, incluso por el César, Marco Aurelio, que antes de morir le elige a él como sucesor dejando de lado a su propio hijo, Cómodo. Cómodo movido por el odio prepara una conspiración contra Máximo, le condena a él y su familia a muerte. Máximo intentará salvar a su mujer y su hijo pero cuando llega es demasiado tarde, Cómodo se le ha adelantado. Máximo volverá a Roma como gladiador en busca de venganza.

Ficha técnica

Video trailer de la película

Enlaces de descarga

Rip de Bluray

Descargar Gladiador (2000) EXTENDED CUT 1080p Latino




Aportes de DPeliculasHDmega la pass es:dpeliculashdmega.org Aportes de CinemaniaHD la pass es:cinemaniahdd.com Aportes recientes:cinemaniahdd.net
Guardado en : Acción , Aventura , Drama , HD 1080p , Remux

Películas relacionadas

descargar Gladiador (2000) EXTENDED CUT 1080p Latino 1080p 1080p gratis, Gladiador (2000) EXTENDED CUT 1080p Latino 1080p mega 1 link, Gladiador (2000) EXTENDED CUT 1080p Latino 1080p pelicula completa, descargar Gladiador (2000) EXTENDED CUT 1080p Latino 1080p gratis en mega.

Gladiador (2000) EXTENDED CUT 1080p Latino pelicula full hd, Gladiador (2000) EXTENDED CUT 1080p Latino mega latino, Gladiador (2000) EXTENDED CUT 1080p Latino 4k latino, Gladiador (2000) EXTENDED CUT 1080p Latino pelicula completa, Gladiador (2000) EXTENDED CUT 1080p Latino descargar gratis, descargar Gladiador (2000) EXTENDED CUT 1080p Latino pelicula latino, Gladiador (2000) EXTENDED CUT 1080p Latino 1 link mega, Gladiador (2000) EXTENDED CUT 1080p Latino 1 link google drive, Gladiador (2000) EXTENDED CUT 1080p Latino hd 1080p latino.
Comentarios 0