×

¿Problemas para descargar con Mozilla, EDGE? Deshabilita la opción "Abrir vinculos en una pestaña nueva" tal como lo muestra ésta imagen.

Gladiador (2000) [Theatrical Cut] OPEN MATTE Web-DL 1080p Latino

1.878 vistas

Información de Gladiador (2000) [Theatrical Cut] OPEN MATTE Web-DL 1080p Latino

gladiator el gladiador 55838 poster

Datos de la película

  • Calidad: WEBDL
  • Audio: Español Latino AC3 5.1 BLURAY - Ingles DTS 5.1 BLURAY
  • Subtitulos: Español Latino SRT - Ingles SRT
  • Resolución: 1920x1080p
  • Formato: MKV
  • Codec: H.264
  • Encoder: CinemaniaHDD
  • Mediainfo: Clic para Mostrar Datos Ver
  • Gladiador (2000) Theatrical Cut OPEN MATTE Web-DL 1080p Latino-CMHDD.mkv
    Format                      : Matroska
    Format version              : Version 4
    File size                   : 23.2 GiB
    Duration                    : 2 h 35 min
    Overall bit rate            : 21.5 Mb/s
    Movie name                  : Gladiator (2000) CinemaniaHDD.Net
    Encoded date                : UTC 2019-08-05 05:07:00
    Writing application         : mkvmerge v35.0.0 ('All The Love In The World') 64-bit
    Writing library             : libebml v1.3.9 + libmatroska v1.5.2
    Attachments                 : CINEMANIAHD.png

    Video
    ID                          : 1
    Format                      : AVC
    Format/Info                 : Advanced Video Codec
    Format profile              : High@L4.1
    Format settings             : CABAC / 4 Ref Frames
    Format settings, CABAC      : Yes
    Format settings, ReFrames   : 4 frames
    Codec ID                    : V_MPEG4/ISO/AVC
    Duration                    : 2 h 35 min
    Bit rate                    : 19.3 Mb/s
    Width                       : 1 920 pixels
    Height                      : 1 080 pixels
    Display aspect ratio        : 16:9
    Frame rate mode             : Constant
    Frame rate                  : 23.976 (24000/1001) FPS
    Color space                 : YUV
    Chroma subsampling          : 4:2:0
    Bit depth                   : 8 bits
    Scan type                   : Progressive
    Bits/(Pixel*Frame)          : 0.388
    Stream size                 : 20.9 GiB (90%)
    Title                       : OM HD1080p [Web-DL]
    Writing library             : x264 core 155 r2901 7d0ff22
    Encoding settings           : cabac=1 / ref=4 / deblock=1:-3:-2 / analyse=0x3:0x113 / me=umh / subme=10 / psy=1 / psy_rd=1.10:0.00 / mixed_ref=1 / me_range=32 / chroma_me=1 / trellis=2 / 8x8dct=1 / cqm=0 / deadzone=21,11 / fast_pskip=1 / chroma_qp_offset=-2 / threads=12 / lookahead_threads=2 / sliced_threads=0 / nr=0 / decimate=1 / interlaced=0 / bluray_compat=0 / constrained_intra=0 / bframes=8 / b_pyramid=2 / b_adapt=2 / b_bias=0 / direct=1 / weightb=1 / open_gop=0 / weightp=2 / keyint=240 / keyint_min=23 / scenecut=40 / intra_refresh=0 / rc_lookahead=40 / rc=crf / mbtree=0 / crf=18.0 / qcomp=0.60 / qpmin=0 / qpmax=69 / qpstep=4 / vbv_maxrate=50000 / vbv_bufsize=62500 / crf_max=0.0 / nal_hrd=none / filler=0 / ip_ratio=1.40 / pb_ratio=1.30 / aq=1:1.00
    Default                     : Yes
    Forced                      : No
    Color range                 : Limited
    Color primaries             : BT.709
    Transfer characteristics    : BT.709
    Matrix coefficients         : BT.709

    Audio #1
    ID                          : 2
    Format                      : AC-3
    Format/Info                 : Audio Coding 3
    Commercial name             : Dolby Digital
    Codec ID                    : A_AC3
    Duration                    : 2 h 35 min
    Bit rate mode               : Constant
    Bit rate                    : 640 kb/s
    Channel(s)                  : 6 channels
    Channel layout              : L R C LFE Ls Rs
    Sampling rate               : 48.0 kHz
    Frame rate                  : 31.250 FPS (1536 SPF)
    Bit depth                   : 16 bits
    Compression mode            : Lossy
    Delay relative to video     : 31 ms
    Stream size                 : 710 MiB (3%)
    Title                       : AC3_5.1_Bluray_Esp
    Language                    : Spanish
    Service kind                : Complete Main
    Default                     : Yes
    Forced                      : Yes

    Audio #2
    ID                          : 3
    Format                      : DTS
    Format/Info                 : Digital Theater Systems
    Codec ID                    : A_DTS
    Duration                    : 2 h 34 min
    Bit rate mode               : Constant
    Bit rate                    : 1 509 kb/s
    Channel(s)                  : 6 channels
    Channel layout              : C L R Ls Rs LFE
    Sampling rate               : 48.0 kHz
    Frame rate                  : 93.750 FPS (512 SPF)
    Bit depth                   : 24 bits
    Compression mode            : Lossy
    Stream size                 : 1.63 GiB (7%)
    Title                       : DTS_5.1_Bluray_Eng
    Language                    : English
    Default                     : No
    Forced                      : No

    Text #1
    ID                          : 4
    Format                      : UTF-8
    Codec ID                    : S_TEXT/UTF8
    Codec ID/Info               : UTF-8 Plain Text
    Duration                    : 46 min 58 s
    Bit rate                    : 1 b/s
    Count of elements           : 13
    Stream size                 : 494 Bytes (0%)
    Title                       : Sub_Forzados
    Language                    : Spanish
    Default                     : Yes
    Forced                      : Yes

    Text #2
    ID                          : 5
    Format                      : UTF-8
    Codec ID                    : S_TEXT/UTF8
    Codec ID/Info               : UTF-8 Plain Text
    Duration                    : 2 h 26 min
    Bit rate                    : 32 b/s
    Count of elements           : 1230
    Stream size                 : 35.3 KiB (0%)
    Title                       : Sub_Esp
    Language                    : Spanish
    Default                     : No
    Forced                      : No

    Text #3
    ID                          : 6
    Format                      : UTF-8
    Codec ID                    : S_TEXT/UTF8
    Codec ID/Info               : UTF-8 Plain Text
    Duration                    : 2 h 25 min
    Bit rate                    : 38 b/s
    Count of elements           : 1482
    Stream size                 : 40.9 KiB (0%)
    Title                       : Sub_Eng
    Language                    : English
    Default                     : No
    Forced                      : No

    Menu
    00:00:00.000                : :Chapter 01
    00:07:13.283                : :Chapter 02
    00:12:50.078                : :Chapter 03
    00:17:28.982                : :Chapter 04
    00:22:20.314                : :Chapter 05
    00:31:49.383                : :Chapter 06
    00:36:04.513                : :Chapter 07
    00:39:20.375                : :Chapter 08
    00:46:02.360                : :Chapter 09
    00:50:05.478                : :Chapter 10
    00:53:15.960                : :Chapter 11
    00:58:31.358                : :Chapter 12
    01:06:07.064                : :Chapter 13
    01:15:04.058                : :Chapter 14
    01:21:23.479                : :Chapter 15
    01:29:13.615                : :Chapter 16
    01:34:03.947                : :Chapter 17
    01:39:33.776                : :Chapter 18
    01:44:11.220                : :Chapter 19
    01:48:18.426                : :Chapter 20
    01:52:17.164                : :Chapter 21
    01:58:17.357                : :Chapter 22
    01:59:30.931                : :Chapter 23
    02:09:19.227                : :Chapter 24
    02:13:33.731                : :Chapter 25
    02:18:36.116                : :Chapter 26
    02:22:58.921                : :Chapter 27
    02:27:13.091                : :Chapter 28

  • Peso: 23.2 GiB

Sinopsis

Descargar Gladiador (2002) [Theatrical Cut] OPEN MATTE Web-DL 1080p Latino. Máximo, General de las Legiones Romanas, es querido por todos, incluso por el César, Marco Aurelio, que antes de morir le elige a él como sucesor dejando de lado a su propio hijo, Cómodo. Cómodo movido por el odio prepara una conspiración contra Máximo, le condena a él y su familia a muerte. Máximo intentará salvar a su mujer y su hijo pero cuando llega es demasiado tarde, Cómodo se le ha adelantado. Máximo volverá a Roma como gladiador en busca de venganza.

Ficha técnica

Video trailer de la película

Enlaces de descarga

Rip de Bluray

Descargar Gladiador (2000) [Theatrical Cut] OPEN MATTE Web-DL 1080p Latino




Aportes de DPeliculasHDmega la pass es:dpeliculashdmega.org Aportes de CinemaniaHD la pass es:cinemaniahdd.com
Guardado en : Acción , Aventura , Drama , OPEN MATTE

Películas relacionadas

  • Un mundo extraño (2022) HD 1080p Latino

    Un mundo extraño (2022) HD 1080p Latino

    2022
    Un mundo extraño (2022) HD 1080p Latino

    1h 42m 2022

    Descargar Un mundo extraño (2022) HD 1080p Latino. Los Clades son una familia conocida en todo el mundo,...

    Director: Thai Bettistea

    Género: Animación

    Actores: Reed Buck

  • Un mundo extraño (2022) REMUX 1080p Latino

    Un mundo extraño (2022) REMUX 1080p Latino

    2022
    Un mundo extraño (2022) REMUX 1080p Latino

    1h 42m 2022

    Descargar Un mundo extraño (2022) REMUX 1080p. Un viaje a una tierra inexplorada y traicionera en la...

    Director: Thai Bettistea

    Género: Animación

    Actores: Reed Buck

  • Stromboli (2022) NF WEB-DL 1080p Latino

    Stromboli (2022) NF WEB-DL 1080p Latino

    2022
    Stromboli (2022) NF WEB-DL 1080p Latino

    1h 26m 2022

    Descargar Stromboli (2022) NF WEB-DL 1080p Latino. Sara, una mujer que se ha divorciado recientemente,...

    Director: Michiel van Erp

    Género: Drama

    Actores: Tim McInnerny

descargar Gladiador (2000) [Theatrical Cut] OPEN MATTE Web-DL 1080p Latino WEBDL 1080p gratis, Gladiador (2000) [Theatrical Cut] OPEN MATTE Web-DL 1080p Latino WEBDL mega 1 link, Gladiador (2000) [Theatrical Cut] OPEN MATTE Web-DL 1080p Latino WEBDL pelicula completa, descargar Gladiador (2000) [Theatrical Cut] OPEN MATTE Web-DL 1080p Latino WEBDL gratis en mega.

Gladiador (2000) [Theatrical Cut] OPEN MATTE Web-DL 1080p Latino pelicula full hd, Gladiador (2000) [Theatrical Cut] OPEN MATTE Web-DL 1080p Latino mega latino, Gladiador (2000) [Theatrical Cut] OPEN MATTE Web-DL 1080p Latino 4k latino, Gladiador (2000) [Theatrical Cut] OPEN MATTE Web-DL 1080p Latino pelicula completa, Gladiador (2000) [Theatrical Cut] OPEN MATTE Web-DL 1080p Latino descargar gratis, descargar Gladiador (2000) [Theatrical Cut] OPEN MATTE Web-DL 1080p Latino pelicula latino, Gladiador (2000) [Theatrical Cut] OPEN MATTE Web-DL 1080p Latino 1 link mega, Gladiador (2000) [Theatrical Cut] OPEN MATTE Web-DL 1080p Latino 1 link google drive, Gladiador (2000) [Theatrical Cut] OPEN MATTE Web-DL 1080p Latino hd 1080p latino.
Comentarios 0