×

¿Problemas para descargar con Mozilla, EDGE? Deshabilita la opción "Abrir vinculos en una pestaña nueva" tal como lo muestra ésta imagen.

Gladiador (2000) [Extended Cut] Full HD 1080p Latino

3.042 vistas

Información de Gladiador (2000) [Extended Cut] Full HD 1080p Latino

gladiator el gladiador 55849 poster

Datos de la película

  • Calidad: Full 1080p
  • Audio: Español Latino AC3 5.1 BLURAY - Ingles DTS 5.1 BLURAY
  • Subtitulos: Español Latino PGS - Ingles PGS
  • Resolución: 1920x1080p
  • Formato: MKV
  • Codec: H.264
  • Encoder: CinefiloCool
  • Mediainfo: Clic para Mostrar Datos Ver
  • Gladiador (2000) EXTENDED Full HD 1080p Latino-CMHDD.mkv
    Format                      : Matroska
    Format version              : Version 4
    File size                   : 9.01 GiB
    Duration                    : 2 h 50 min
    Overall bit rate            : 7 544 kb/s
    Movie name                  : Gladiator (2000) CinemaniaHDD.Net
    Encoded date                : UTC 2019-08-06 03:39:17
    Writing application         : mkvmerge v35.0.0 ('All The Love In The World') 64-bit
    Writing library             : libebml v1.3.9 + libmatroska v1.5.2
    Attachments                 : CINEMANIAHD.png

    Video
    ID                          : 1
    Format                      : AVC
    Format/Info                 : Advanced Video Codec
    Format profile              : High@L4.1
    Format settings             : CABAC / 4 Ref Frames
    Format settings, CABAC      : Yes
    Format settings, ReFrames   : 4 frames
    Codec ID                    : V_MPEG4/ISO/AVC
    Duration                    : 2 h 50 min
    Bit rate                    : 5 379 kb/s
    Width                       : 1 920 pixels
    Height                      : 1 080 pixels
    Display aspect ratio        : 16:9
    Frame rate mode             : Constant
    Frame rate                  : 23.976 (24000/1001) FPS
    Color space                 : YUV
    Chroma subsampling          : 4:2:0
    Bit depth                   : 8 bits
    Scan type                   : Progressive
    Bits/(Pixel*Frame)          : 0.108
    Stream size                 : 6.42 GiB (71%)
    Title                       : Full HD1080p [Bluray]
    Writing library             : x264 core 157 r2935 545de2f
    Encoding settings           : cabac=1 / ref=4 / deblock=1:0:0 / analyse=0x3:0x133 / me=tesa / subme=11 / psy=1 / psy_rd=1.00:0.00 / mixed_ref=1 / me_range=24 / chroma_me=1 / trellis=2 / 8x8dct=1 / cqm=0 / deadzone=21,11 / fast_pskip=0 / chroma_qp_offset=-2 / threads=34 / lookahead_threads=8 / sliced_threads=0 / nr=0 / decimate=1 / interlaced=0 / bluray_compat=0 / constrained_intra=0 / bframes=16 / b_pyramid=2 / b_adapt=2 / b_bias=0 / direct=3 / weightb=1 / open_gop=0 / weightp=2 / keyint=240 / keyint_min=24 / scenecut=40 / intra_refresh=0 / rc_lookahead=60 / rc=crf / mbtree=1 / crf=20.0 / qcomp=0.60 / qpmin=0 / qpmax=69 / qpstep=4 / vbv_maxrate=62500 / vbv_bufsize=78125 / crf_max=0.0 / nal_hrd=none / filler=0 / ip_ratio=1.40 / aq=1:1.00
    Default                     : Yes
    Forced                      : No
    Color range                 : Limited
    Color primaries             : BT.709
    Transfer characteristics    : BT.709
    Matrix coefficients         : BT.709

    Audio #1
    ID                          : 2
    Format                      : AC-3
    Format/Info                 : Audio Coding 3
    Commercial name             : Dolby Digital
    Codec ID                    : A_AC3
    Duration                    : 2 h 50 min
    Bit rate mode               : Constant
    Bit rate                    : 640 kb/s
    Channel(s)                  : 6 channels
    Channel layout              : L R C LFE Ls Rs
    Sampling rate               : 48.0 kHz
    Frame rate                  : 31.250 FPS (1536 SPF)
    Bit depth                   : 16 bits
    Compression mode            : Lossy
    Stream size                 : 783 MiB (8%)
    Title                       : AC3_5.1_Bluray_Esp
    Language                    : Spanish
    Service kind                : Complete Main
    Default                     : Yes
    Forced                      : Yes

    Audio #2
    ID                          : 3
    Format                      : DTS
    Format/Info                 : Digital Theater Systems
    Codec ID                    : A_DTS
    Duration                    : 2 h 50 min
    Bit rate mode               : Constant
    Bit rate                    : 1 509 kb/s
    Channel(s)                  : 6 channels
    Channel layout              : C L R Ls Rs LFE
    Sampling rate               : 48.0 kHz
    Frame rate                  : 93.750 FPS (512 SPF)
    Bit depth                   : 24 bits
    Compression mode            : Lossy
    Stream size                 : 1.80 GiB (20%)
    Title                       : DTS_5.1_Bluray_Eng
    Language                    : English
    Default                     : No
    Forced                      : No

    Text #1
    ID                          : 4
    Format                      : PGS
    Muxing mode                 : zlib
    Codec ID                    : S_HDMV/PGS
    Codec ID/Info               : Picture based subtitle format used on BDs/HD-DVDs
    Duration                    : 2 h 42 min
    Bit rate                    : 315 b/s
    Count of elements           : 76
    Stream size                 : 377 KiB (0%)
    Title                       : Sub_Forzados [PGS]
    Language                    : Spanish
    Default                     : Yes
    Forced                      : Yes

    Text #2
    ID                          : 5
    Format                      : PGS
    Muxing mode                 : zlib
    Codec ID                    : S_HDMV/PGS
    Codec ID/Info               : Picture based subtitle format used on BDs/HD-DVDs
    Duration                    : 2 h 42 min
    Bit rate                    : 21.8 kb/s
    Count of elements           : 2607
    Stream size                 : 25.4 MiB (0%)
    Title                       : Sub_Esp [PGS]
    Language                    : Spanish
    Default                     : No
    Forced                      : No

    Text #3
    ID                          : 6
    Format                      : PGS
    Muxing mode                 : zlib
    Codec ID                    : S_HDMV/PGS
    Codec ID/Info               : Picture based subtitle format used on BDs/HD-DVDs
    Duration                    : 2 h 41 min
    Bit rate                    : 24.0 kb/s
    Count of elements           : 2900
    Stream size                 : 27.8 MiB (0%)
    Title                       : Sub_Eng [PGS]
    Language                    : English
    Default                     : No
    Forced                      : No

    Text #4
    ID                          : 7
    Format                      : UTF-8
    Codec ID                    : S_TEXT/UTF8
    Codec ID/Info               : UTF-8 Plain Text
    Duration                    : 2 h 45 min
    Bit rate                    : 0 b/s
    Count of elements           : 12
    Stream size                 : 499 Bytes (0%)
    Title                       : Sub_Forzados
    Language                    : Spanish
    Default                     : No
    Forced                      : No

    Text #5
    ID                          : 8
    Format                      : UTF-8
    Codec ID                    : S_TEXT/UTF8
    Codec ID/Info               : UTF-8 Plain Text
    Duration                    : 2 h 45 min
    Bit rate                    : 35 b/s
    Count of elements           : 1338
    Stream size                 : 42.3 KiB (0%)
    Title                       : Sub_Esp
    Language                    : Spanish
    Default                     : No
    Forced                      : No

    Menu
    00:00:00.000                : :Chapter 1
    00:07:14.309                : :Chapter 2
    00:12:51.145                : :Chapter 3
    00:18:45.833                : :Chapter 4
    00:23:30.367                : :Chapter 5
    00:32:59.436                : :Chapter 6
    00:37:35.920                : :Chapter 7
    00:40:51.783                : :Chapter 8
    00:47:33.768                : :Chapter 9
    00:51:36.885                : :Chapter 10
    00:55:45.425                : :Chapter 11
    01:02:22.364                : :Chapter 12
    01:09:58.069                : :Chapter 13
    01:19:09.411                : :Chapter 14
    01:29:22.691                : :Chapter 15
    01:37:12.869                : :Chapter 16
    01:41:36.841                : :Chapter 17
    01:51:59.963                : :Chapter 18
    01:56:37.282                : :Chapter 19
    02:00:44.571                : :Chapter 20
    02:04:43.226                : :Chapter 21
    02:12:20.141                : :Chapter 22
    02:13:33.631                : :Chapter 23
    02:24:16.481                : :Chapter 24
    02:28:49.754                : :Chapter 25
    02:34:21.836                : :Chapter 26
    02:38:44.598                : :Chapter 27
    02:42:58.727                : :Chapter 28

  • Peso: 9.01 GiB

Sinopsis

Descargar Gladiador (2000) [Extended Cut] Full HD 1080p Latino, Mega, Google Drive. Máximo, General de las Legiones Romanas, es querido por todos, incluso por el César, Marco Aurelio, que antes de morir le elige a él como sucesor dejando de lado a su propio hijo, Cómodo. Cómodo movido por el odio prepara una conspiración contra Máximo, le condena a él y su familia a muerte. Máximo intentará salvar a su mujer y su hijo pero cuando llega es demasiado tarde, Cómodo se le ha adelantado. Máximo volverá a Roma como gladiador en busca de venganza.

Ficha técnica

Video trailer de la película

Enlaces de descarga

Rip de Bluray

Descargar Gladiador (2000) [Extended Cut] Full HD 1080p Latino




Aportes de DPeliculasHDmega la pass es:dpeliculashdmega.org Aportes de CinemaniaHD la pass es:cinemaniahdd.com

Películas relacionadas

  • Un mundo extraño (2022) HD 1080p Latino

    Un mundo extraño (2022) HD 1080p Latino

    2022
    Un mundo extraño (2022) HD 1080p Latino

    1h 42m 2022

    Descargar Un mundo extraño (2022) HD 1080p Latino. Los Clades son una familia conocida en todo el mundo,...

    Director: Thai Bettistea

    Género: Animación

    Actores: Reed Buck

  • Un mundo extraño (2022) REMUX 1080p Latino

    Un mundo extraño (2022) REMUX 1080p Latino

    2022
    Un mundo extraño (2022) REMUX 1080p Latino

    1h 42m 2022

    Descargar Un mundo extraño (2022) REMUX 1080p. Un viaje a una tierra inexplorada y traicionera en la...

    Director: Thai Bettistea

    Género: Animación

    Actores: Reed Buck

  • Stromboli (2022) NF WEB-DL 1080p Latino

    Stromboli (2022) NF WEB-DL 1080p Latino

    2022
    Stromboli (2022) NF WEB-DL 1080p Latino

    1h 26m 2022

    Descargar Stromboli (2022) NF WEB-DL 1080p Latino. Sara, una mujer que se ha divorciado recientemente,...

    Director: Michiel van Erp

    Género: Drama

    Actores: Tim McInnerny

descargar Gladiador (2000) [Extended Cut] Full HD 1080p Latino Full 1080p 1080p gratis, Gladiador (2000) [Extended Cut] Full HD 1080p Latino Full 1080p mega 1 link, Gladiador (2000) [Extended Cut] Full HD 1080p Latino Full 1080p pelicula completa, descargar Gladiador (2000) [Extended Cut] Full HD 1080p Latino Full 1080p gratis en mega.

Gladiador (2000) [Extended Cut] Full HD 1080p Latino pelicula full hd, Gladiador (2000) [Extended Cut] Full HD 1080p Latino mega latino, Gladiador (2000) [Extended Cut] Full HD 1080p Latino 4k latino, Gladiador (2000) [Extended Cut] Full HD 1080p Latino pelicula completa, Gladiador (2000) [Extended Cut] Full HD 1080p Latino descargar gratis, descargar Gladiador (2000) [Extended Cut] Full HD 1080p Latino pelicula latino, Gladiador (2000) [Extended Cut] Full HD 1080p Latino 1 link mega, Gladiador (2000) [Extended Cut] Full HD 1080p Latino 1 link google drive, Gladiador (2000) [Extended Cut] Full HD 1080p Latino hd 1080p latino.
Comentarios 1
  • miguel angel guarín moreno - 10 agosto, 2019

    Gracias por esta magnífica pelicula