Gigi (1958) Full 1080p Latino

529 vistas
1 estrella2 estrellas3 estrellas4 estrellas5 estrellas (2 votos, promedio: 5,00 de 5)
Cargando…

Información de Gigi (1958) Full 1080p Latino

Datos de la película

  • Calidad: Full 1080p
  • Audio: Se especifica abajo de la Sinopsis
  • Subtitulos: Español Latino PGS - Ingles PGS
  • Resolución: 1920x1080p
  • Formato: MKV
  • Codec: H.264
  • Encoder: Dracarys
  • Mediainfo: Clic para Mostrar Datos Ver
  • Format                                   : Matroska
    Format version                           : Version 2
    File size                                : 12.3 GiB
    Duration                                 : 1 h 55 min
    Overall bit rate                         : 15.3 Mb/s
    Movie name                               : CinemaniaHDD.net
    Encoded date                             : UTC 2018-06-26 16:26:53 / UTC 2018-06-25T01:11:14Z
    Writing application                      : mkvmerge v5.7.0 ('The Whirlwind') built on Jul  8 2012 20:08:51
    Writing library                          : libebml v1.2.3 + libmatroska v1.3.0 / Lavf57.7.2

    Video
    ID                                       : 1
    Format                                   : AVC
    Format/Info                              : Advanced Video Codec
    Format profile                           : High@L4.1
    Format settings                          : CABAC / 4 Ref Frames
    Format settings, CABAC                   : Yes
    Format settings, RefFrames               : 4 frames
    Muxing mode                              : Header stripping
    Codec ID                                 : V_MPEG4/ISO/AVC
    Duration                                 : 1 h 55 min
    Bit rate                                 : 13.7 Mb/s
    Width                                    : 1 920 pixels
    Height                                   : 1 080 pixels
    Display aspect ratio                     : 16:9
    Frame rate mode                          : Constant
    Frame rate                               : 23.976 (24000/1001) FPS
    Color space                              : YUV
    Chroma subsampling                       : 4:2:0
    Bit depth                                : 8 bits
    Scan type                                : Progressive
    Bits/(Pixel*Frame)                       : 0.275
    Stream size                              : 11.0 GiB (90%)
    Title                                    : Gigi (1958) Full 1080p Latino
    Writing library                          : x264 core 155 r2893 b00bcaf
    Encoding settings                        : cabac=1 / ref=4 / deblock=1:0:0 / analyse=0x3:0x133 / me=esa / subme=10 / psy=1 / psy_rd=1.00:0.00 / mixed_ref=1 / me_range=24 / chroma_me=1 / trellis=2 / 8x8dct=1 / cqm=0 / deadzone=21,11 / fast_pskip=1 / chroma_qp_offset=-2 / threads=24 / lookahead_threads=4 / sliced_threads=0 / nr=0 / decimate=1 / interlaced=0 / bluray_compat=0 / constrained_intra=0 / bframes=8 / b_pyramid=2 / b_adapt=2 / b_bias=0 / direct=3 / weightb=1 / open_gop=0 / weightp=2 / keyint=240 / keyint_min=24 / scenecut=40 / intra_refresh=0 / rc_lookahead=60 / rc=crf / mbtree=1 / crf=20.0 / qcomp=0.60 / qpmin=0 / qpmax=69 / qpstep=4 / vbv_maxrate=62500 / vbv_bufsize=78125 / crf_max=0.0 / nal_hrd=none / filler=0 / ip_ratio=1.40 / aq=1:1.00
    Language                                 : English
    Default                                  : Yes
    Forced                                   : No
    Color range                              : Limited
    Color primaries                          : BT.709
    Transfer characteristics                 : BT.709
    Matrix coefficients                      : BT.709

    Audio #1
    ID                                       : 2
    Format                                   : AC-3
    Format/Info                              : Audio Coding 3
    Format settings, Endianness              : Big
    Muxing mode                              : Header stripping
    Codec ID                                 : A_AC3
    Duration                                 : 1 h 55 min
    Bit rate mode                            : Constant
    Bit rate                                 : 640 kb/s
    Channel(s)                               : 1 channel
    Channel positions                        : Front: C
    Sampling rate                            : 48.0 kHz
    Frame rate                               : 31.250 FPS (1536 SPF)
    Bit depth                                : 16 bits
    Compression mode                         : Lossy
    Stream size                              : 529 MiB (4%)
    Language                                 : Spanish
    Service kind                             : Complete Main
    Default                                  : Yes
    Forced                                   : No

    Audio #2
    ID                                       : 3
    Format                                   : AC-3
    Format/Info                              : Audio Coding 3
    Format settings, Endianness              : Big
    Muxing mode                              : Header stripping
    Codec ID                                 : A_AC3
    Duration                                 : 1 h 55 min
    Bit rate mode                            : Constant
    Bit rate                                 : 640 kb/s
    Channel(s)                               : 6 channels
    Channel positions                        : Front: L C R, Side: L R, LFE
    Sampling rate                            : 48.0 kHz
    Frame rate                               : 31.250 FPS (1536 SPF)
    Bit depth                                : 16 bits
    Compression mode                         : Lossy
    Stream size                              : 529 MiB (4%)
    Language                                 : English
    Service kind                             : Complete Main
    Default                                  : No
    Forced                                   : No

    Text #1
    ID                                       : 4
    Format                                   : PGS
    Muxing mode                              : zlib
    Codec ID                                 : S_HDMV/PGS
    Codec ID/Info                            : Picture based subtitle format used on BDs/HD-DVDs
    Language                                 : English
    Default                                  : No
    Forced                                   : No

    Text #2
    ID                                       : 5
    Format                                   : PGS
    Muxing mode                              : zlib
    Codec ID                                 : S_HDMV/PGS
    Codec ID/Info                            : Picture based subtitle format used on BDs/HD-DVDs
    Language                                 : Spanish
    Default                                  : No
    Forced                                   : No

    Menu
    00:00:00.000                             : :Chapter 1
    00:02:14.134                             : :Chapter 2
    00:05:07.390                             : :Chapter 3
    00:07:35.205                             : :Chapter 4
    00:11:10.795                             : :Chapter 5
    00:14:39.170                             : :Chapter 6
    00:17:16.077                             : :Chapter 7
    00:20:46.287                             : :Chapter 8
    00:24:06.779                             : :Chapter 9
    00:26:41.850                             : :Chapter 10
    00:30:58.106                             : :Chapter 11
    00:33:25.170                             : :Chapter 12
    00:35:45.560                             : :Chapter 13
    00:39:35.999                             : :Chapter 14
    00:43:25.937                             : :Chapter 15
    00:47:11.871                             : :Chapter 16
    00:53:48.267                             : :Chapter 17
    00:56:14.621                             : :Chapter 18
    00:59:23.685                             : :Chapter 19
    01:03:19.004                             : :Chapter 20
    01:09:50.269                             : :Chapter 21
    01:13:08.092                             : :Chapter 22
    01:16:50.106                             : :Chapter 23
    01:19:56.959                             : :Chapter 24
    01:23:40.641                             : :Chapter 25
    01:25:42.095                             : :Chapter 26
    01:31:22.143                             : :Chapter 27
    01:34:36.462                             : :Chapter 28
    01:37:51.115                             : :Chapter 29
    01:41:52.106                             : :Chapter 30
    01:44:06.157                             : :Chapter 31
    01:51:05.534                             : :Chapter 32
    01:53:25.465                             : :Chapter 33

  • Peso: 12.3 GiB

Sinopsis

París, 1900. Gaston es un joven millonario que se aburre, a pesar de ser el soltero más perseguido de toda la ciudad. Gigi es casi una niña, no tiene todavía edad para bailes y amoríos. Pero Gaston es amigo de su familia y la visita con frecuencia. La abuela de Gigi sueña con una boda entre Gastón y su nieta. Pero los planes de Gaston con respecto a Gigi no tienen nada que ver con el matrimonio.

 

Latino AC3 1.0 Bluray – Ingles AC3 5.1 Bluray

Ficha técnica

Video trailer de la película

Enlaces de descarga

Rip de Bluray

Descargar Gigi (1958) Full 1080p Latino




Aportes de DPeliculasHDmega la pass es:dpeliculashdmega.org Aportes de CinemaniaHD la pass es:cinemaniahdd.com

Películas relacionadas

  • Godzilla (2014) Full 1080p Latino

    2014
    Godzilla (2014) Full 1080p Latino

    4.2 2h 3m 2014

    Descargar Godzilla (2014) Full 1080p Latino, Mega, Google Drive, Torrent. Gareth Edwards dirige este...

    Director: Jessica Clothier

    Género: Acción

    Actores: Yuki Morita

  • Un pequeño favor (2018) Full 1080p Latino

    2018
    Un pequeño favor (2018) Full 1080p Latino

    5.0 1h 57m 2018

    Descargar Un pequeño favor (2018) Full 1080p Latino, Mega, Google Drive, Torrent. Stephanie es una joven...

    Director: Paul Feig

    Género: Crimen

    Actores: Zach Smadu

  • Escuela Nocturnas (2018) WEBDL 1080p Latino

    2018
    Escuela Nocturnas (2018) WEBDL 1080p Latino

    3.7 1h 51m 2018

    A Teddy Walker (Kevin Hart) le acaban de decir que tiene dislexia, además de otras discapacidades de...

    Director: Malcolm D. Lee

    Género: Comedia

    Actores: Yvonne Orji

Comentarios 0