×

¿Problemas para descargar con Mozilla, EDGE? Deshabilita la opción "Abrir vinculos en una pestaña nueva" tal como lo muestra ésta imagen.

Gifted (2017) REMUX 1080p Latino – CMHDD

190 vistas

Información de Gifted (2017) REMUX 1080p Latino – CMHDD

Datos de la película

  • Calidad: Full 1080p
  • Audio: Español Latino AC3 5.1 BLURAY - Ingles DTS 5.1 BLURAY
  • Subtitulos: Español Latino PGS
  • Resolución: 1920x1080p
  • Formato: MKV
  • Codec: H.264
  • Encoder: Dracarys
  • Mediainfo: Clic para Mostrar Datos Ver
  • Format                      : Matroska
    Format version              : Version 4
    File size                   : 24.5 GiB
    Duration                    : 1 h 41 min
    Overall bit rate mode       : Variable
    Overall bit rate            : 34.7 Mb/s
    Movie name                  : Gifted (2017) REMUX 1080p Latino - CMHDD
    Encoded date                : UTC 2023-08-29 05:12:04
    Writing application         : mkvmerge v47.0.0 ('Black Flag') 64-bit
    Writing library             : libebml v1.3.10 + libmatroska v1.5.2
    Cover                       : Yes
    Attachments                 : cover.jpg

    Video
    ID                          : 1
    ID in the original source m : 4113 (0x1011)
    Format                      : AVC
    Format/Info                 : Advanced Video Codec
    Format profile              : High@L4.1
    Format settings             : CABAC / 4 Ref Frames
    Format settings, CABAC      : Yes
    Format settings, Reference  : 4 frames
    Codec ID                    : V_MPEG4/ISO/AVC
    Duration                    : 1 h 41 min
    Bit rate mode               : Variable
    Bit rate                    : 30.0 Mb/s
    Maximum bit rate            : 31.4 Mb/s
    Width                       : 1 920 pixels
    Height                      : 1 080 pixels
    Display aspect ratio        : 16:9
    Frame rate mode             : Constant
    Frame rate                  : 23.976 (24000/1001) FPS
    Color space                 : YUV
    Chroma subsampling          : 4:2:0
    Bit depth                   : 8 bits
    Scan type                   : Progressive
    Bits/(Pixel*Frame)          : 0.604
    Stream size                 : 21.2 GiB (87%)
    Default                     : Yes
    Forced                      : No
    Original source medium      : Blu-ray

    Audio #1
    ID                          : 2
    ID in the original source m : 4352 (0x1100)
    Format                      : DTS XLL
    Format/Info                 : Digital Theater Systems
    Commercial name             : DTS-HD Master Audio
    Codec ID                    : A_DTS
    Duration                    : 1 h 41 min
    Bit rate mode               : Variable
    Bit rate                    : 3 729 kb/s
    Channel(s)                  : 6 channels
    Channel layout              : C L R Ls Rs LFE
    Sampling rate               : 48.0 kHz
    Frame rate                  : 93.750 FPS (512 SPF)
    Bit depth                   : 24 bits
    Compression mode            : Lossless
    Stream size                 : 2.64 GiB (11%)
    Language                    : English
    Default                     : No
    Forced                      : No
    Original source medium      : Blu-ray

    Audio #2
    ID                          : 3
    ID in the original source m : 4353 (0x1101)
    Format                      : AC-3
    Format/Info                 : Audio Coding 3
    Commercial name             : Dolby Digital
    Codec ID                    : A_AC3
    Duration                    : 1 h 41 min
    Bit rate mode               : Constant
    Bit rate                    : 448 kb/s
    Channel(s)                  : 6 channels
    Channel layout              : L R C LFE Ls Rs
    Sampling rate               : 48.0 kHz
    Frame rate                  : 31.250 FPS (1536 SPF)
    Compression mode            : Lossy
    Delay relative to video     : 28 ms
    Stream size                 : 324 MiB (1%)
    Language                    : English
    Service kind                : Complete Main
    Default                     : No
    Forced                      : No
    Original source medium      : Blu-ray

    Audio #3
    ID                          : 4
    ID in the original source m : 4354 (0x1102)
    Format                      : AC-3
    Format/Info                 : Audio Coding 3
    Commercial name             : Dolby Digital
    Codec ID                    : A_AC3
    Duration                    : 1 h 41 min
    Bit rate mode               : Constant
    Bit rate                    : 448 kb/s
    Channel(s)                  : 6 channels
    Channel layout              : L R C LFE Ls Rs
    Sampling rate               : 48.0 kHz
    Frame rate                  : 31.250 FPS (1536 SPF)
    Compression mode            : Lossy
    Delay relative to video     : 28 ms
    Stream size                 : 324 MiB (1%)
    Language                    : Spanish
    Service kind                : Complete Main
    Default                     : Yes
    Forced                      : No
    Original source medium      : Blu-ray

    Text
    ID                          : 5
    ID in the original source m : 4609 (0x1201)
    Format                      : PGS
    Muxing mode                 : zlib
    Codec ID                    : S_HDMV/PGS
    Codec ID/Info               : Picture based subtitle format used on BDs/HD-DVDs
    Duration                    : 1 h 40 min
    Bit rate                    : 38.6 kb/s
    Frame rate                  : 0.513 FPS
    Count of elements           : 3084
    Stream size                 : 27.7 MiB (0%)
    Language                    : Spanish
    Default                     : No
    Forced                      : No
    Original source medium      : Blu-ray

    Menu
    00:00:00.000                : en:Capítulo 01
    00:04:36.317                : en:Capítulo 02
    00:07:49.302                : en:Capítulo 03
    00:12:55.524                : en:Capítulo 04
    00:18:50.003                : en:Capítulo 05
    00:22:23.008                : en:Capítulo 06
    00:29:13.084                : en:Capítulo 07
    00:33:18.830                : en:Capítulo 08
    00:37:56.399                : en:Capítulo 09
    00:42:57.825                : en:Capítulo 10
    00:45:34.356                : en:Capítulo 11
    00:48:06.675                : en:Capítulo 12
    00:50:58.805                : en:Capítulo 13
    00:54:31.685                : en:Capítulo 14
    00:59:05.959                : en:Capítulo 15
    01:03:52.787                : en:Capítulo 16
    01:08:44.787                : en:Capítulo 17
    01:14:52.279                : en:Capítulo 18
    01:19:29.347                : en:Capítulo 19
    01:23:44.769                : en:Capítulo 20
    01:26:54.751                : en:Capítulo 21
    01:29:38.831                : en:Capítulo 22
    01:32:49.272                : en:Capítulo 23
    01:35:36.647                : en:Capítulo 24

  • Peso: 24.5 GiB

Sinopsis

Ambientada en un pueblo costero de Florida, Gifted cuenta la historia de Frank Adler, un hombre soltero que cría a su sobrina Mary tras el fallecimiento de su madre. La niña tiene una gran habilidad para las matemáticas y su abuela Evelyn lo sabe bien. Mientras que su tío intenta que la vida de la pequeña sea lo más normal posible y que disfrute de su infancia, Evelyn tiene otros planes para ella. Como consecuencia, Frank se verá obligado a luchar desesperadamente por su custodia.

Ficha técnica

Video trailer de la película

Enlaces de descarga

Rip de Bluray

Descargar Gifted (2017) REMUX 1080p Latino – CMHDD


Aportes de DPeliculasHDmega la pass es:dpeliculashdmega.org Aportes de CinemaniaHD la pass es:cinemaniahdd.com Aportes recientes:cinemaniahdd.net
Guardado en : Comedia , Drama

Películas relacionadas

descargar Gifted (2017) REMUX 1080p Latino – CMHDD Full 1080p 1080p gratis, Gifted (2017) REMUX 1080p Latino – CMHDD Full 1080p mega 1 link, Gifted (2017) REMUX 1080p Latino – CMHDD Full 1080p pelicula completa, descargar Gifted (2017) REMUX 1080p Latino – CMHDD Full 1080p gratis en mega.

Gifted (2017) REMUX 1080p Latino – CMHDD pelicula full hd, Gifted (2017) REMUX 1080p Latino – CMHDD mega latino, Gifted (2017) REMUX 1080p Latino – CMHDD 4k latino, Gifted (2017) REMUX 1080p Latino – CMHDD pelicula completa, Gifted (2017) REMUX 1080p Latino – CMHDD descargar gratis, descargar Gifted (2017) REMUX 1080p Latino – CMHDD pelicula latino, Gifted (2017) REMUX 1080p Latino – CMHDD 1 link mega, Gifted (2017) REMUX 1080p Latino – CMHDD 1 link google drive, Gifted (2017) REMUX 1080p Latino – CMHDD hd 1080p latino.
Comentarios 0