×

¿Problemas para descargar con Mozilla, EDGE? Deshabilita la opción "Abrir vinculos en una pestaña nueva" tal como lo muestra ésta imagen.

Ghosts (2021) Temporada 1 DTVGO WEB-DL 1080p Latino

117 vistas

Información de Ghosts (2021) Temporada 1 DTVGO WEB-DL 1080p Latino

Datos de la película

  • Calidad: 1080p
  • Audio: Español Latino AC3 2.0 WEB-DL - Ingles AC3 2.0 WEB-DL
  • Subtitulos: Español Latino SRT
  • Resolución: 1920x1080
  • Formato: MKV
  • Codec: H.264
  • Encoder: cinemaniahdd
  • Mediainfo: Clic para Mostrar Datos Ver
  • Ghosts T01E01 DTVGO WEB-DL 1080p Latino [CNMNHDD].mkv
    Format                      : Matroska
    Format version              : Version 4
    File size                   : 1.04 GiB
    Duration                    : 22 min 9 s
    Overall bit rate            : 6 748 kb/s
    Movie name                  : Ghosts S01E01 - Piloto [1080p] - CinemaniaHDD.Net
    Encoded date                : UTC 2022-09-26 23:53:17
    Writing application         : mkvmerge v56.1.0 ('My Friend') 64-bit
    Writing library             : libebml v1.4.2 + libmatroska v1.6.4

    Video
    ID                          : 1
    Format                      : AVC
    Format/Info                 : Advanced Video Codec
    Format profile              : High@L4
    Format settings             : 1 Ref Frames
    Format settings, CABAC      : No
    Format settings, Reference  : 1 frame
    Codec ID                    : V_MPEG4/ISO/AVC
    Duration                    : 22 min 9 s
    Bit rate mode               : Constant
    Bit rate                    : 6 000 kb/s
    Width                       : 1 920 pixels
    Height                      : 1 080 pixels
    Display aspect ratio        : 16:9
    Frame rate mode             : Constant
    Frame rate                  : 29.970 (30000/1001) FPS
    Standard                    : Component
    Color space                 : YUV
    Chroma subsampling          : 4:2:0
    Bit depth                   : 8 bits
    Scan type                   : Progressive
    Bits/(Pixel*Frame)          : 0.097
    Stream size                 : 947 MiB (89%)
    Title                       : CinemaniaHDD
    Default                     : Yes
    Forced                      : No
    Color range                 : Limited
    Color primaries             : BT.601 NTSC
    Transfer characteristics    : BT.601
    Matrix coefficients         : BT.601

    Audio #1
    ID                          : 2
    Format                      : AC-3
    Format/Info                 : Audio Coding 3
    Commercial name             : Dolby Digital
    Codec ID                    : A_AC3
    Duration                    : 22 min 9 s
    Bit rate mode               : Constant
    Bit rate                    : 384 kb/s
    Channel(s)                  : 2 channels
    Channel layout              : L R
    Sampling rate               : 48.0 kHz
    Frame rate                  : 31.250 FPS (1536 SPF)
    Compression mode            : Lossy
    Stream size                 : 60.9 MiB (6%)
    Title                       : Español latino [CinemaniaHDD]
    Language                    : Spanish
    Service kind                : Complete Main
    Default                     : Yes
    Forced                      : No

    Audio #2
    ID                          : 3
    Format                      : E-AC-3
    Format/Info                 : Enhanced AC-3
    Commercial name             : Dolby Digital Plus
    Codec ID                    : A_EAC3
    Duration                    : 22 min 9 s
    Bit rate mode               : Constant
    Bit rate                    : 192 kb/s
    Channel(s)                  : 2 channels
    Channel layout              : L R
    Sampling rate               : 48.0 kHz
    Frame rate                  : 31.250 FPS (1536 SPF)
    Compression mode            : Lossy
    Stream size                 : 30.4 MiB (3%)
    Title                       : Español latino / E-AC3 [CinemaniaHDD]
    Language                    : Spanish
    Service kind                : Complete Main
    Default                     : No
    Forced                      : No

    Audio #3
    ID                          : 4
    Format                      : E-AC-3
    Format/Info                 : Enhanced AC-3
    Commercial name             : Dolby Digital Plus
    Codec ID                    : A_EAC3
    Duration                    : 22 min 9 s
    Bit rate mode               : Constant
    Bit rate                    : 192 kb/s
    Channel(s)                  : 2 channels
    Channel layout              : L R
    Sampling rate               : 48.0 kHz
    Frame rate                  : 31.250 FPS (1536 SPF)
    Compression mode            : Lossy
    Stream size                 : 30.4 MiB (3%)
    Title                       : Inglés [CinemaniaHDD]
    Language                    : English
    Service kind                : Complete Main
    Default                     : No
    Forced                      : No

    Text
    ID                          : 5
    Format                      : UTF-8
    Codec ID                    : S_TEXT/UTF8
    Codec ID/Info               : UTF-8 Plain Text
    Duration                    : 21 min 22 s
    Bit rate                    : 147 b/s
    Count of elements           : 684
    Stream size                 : 23.1 KiB (0%)
    Title                       : Español latino [CinemaniaHDD]
    Language                    : Spanish
    Default                     : No
    Forced                      : No

     

  • Peso: 1.04 GiB C/U --- 10 CAPITULOS AGREGADOS

Sinopsis

Samantha y Jay heredan una finca que esperan convertir en un hotel, pero descubren que el lugar está habitado por los espíritus de los antiguos residentes.

10 CAPITULOS AGREGADOS

Ficha técnica

  • Titulo original: Ghosts
  • Fecha de lanzamiento: 07-10-2021 (US)
  • Género: Comedia, Series

Video trailer de la película

Enlaces de descarga

Rip de Bluray

Descargar Ghosts (2021) Temporada 1 DTVGO WEB-DL 1080p Latino




Aportes de DPeliculasHDmega la pass es:dpeliculashdmega.org Aportes de CinemaniaHD la pass es:cinemaniahdd.com
Guardado en : Comedia , Series

Películas relacionadas

descargar Ghosts (2021) Temporada 1 DTVGO WEB-DL 1080p Latino 1080p 1080p gratis, Ghosts (2021) Temporada 1 DTVGO WEB-DL 1080p Latino 1080p mega 1 link, Ghosts (2021) Temporada 1 DTVGO WEB-DL 1080p Latino 1080p serie completa, descargar Ghosts (2021) Temporada 1 DTVGO WEB-DL 1080p Latino 1080p gratis en mega.

Ghosts (2021) Temporada 1 DTVGO WEB-DL 1080p Latino pelicula full hd, Ghosts (2021) Temporada 1 DTVGO WEB-DL 1080p Latino mega latino, Ghosts (2021) Temporada 1 DTVGO WEB-DL 1080p Latino 4k latino, Ghosts (2021) Temporada 1 DTVGO WEB-DL 1080p Latino pelicula completa, Ghosts (2021) Temporada 1 DTVGO WEB-DL 1080p Latino descargar gratis, descargar Ghosts (2021) Temporada 1 DTVGO WEB-DL 1080p Latino pelicula latino, Ghosts (2021) Temporada 1 DTVGO WEB-DL 1080p Latino 1 link mega, Ghosts (2021) Temporada 1 DTVGO WEB-DL 1080p Latino 1 link google drive, Ghosts (2021) Temporada 1 DTVGO WEB-DL 1080p Latino hd 1080p latino.
Comentarios 0