×

¿Problemas para descargar con Mozilla, EDGE? Deshabilita la opción "Abrir vinculos en una pestaña nueva" tal como lo muestra ésta imagen.

Ghostbusters II (1989) REMUX 4K HDR Latino – CMHDD

270 vistas

Información de Ghostbusters II (1989) REMUX 4K HDR Latino – CMHDD

Datos de la película

  • Calidad:
  • Audio: Español Latino AC3 2.0 BLURAY - Ingles DTS 5.1 BLURAY
  • Subtitulos: Español Latino PGS
  • Resolución: 3840x2160p
  • Formato: MKV
  • Codec: H.264
  • Encoder: Dracarys
  • Mediainfo: Clic para Mostrar Datos Ver
  • Format                      : Matroska
    Format version              : Version 4
    File size                   : 64.7 GiB
    Duration                    : 1 h 48 min
    Overall bit rate mode       : Variable
    Overall bit rate            : 85.5 Mb/s
    Movie name                  : Ghostbusters II (1989) REMUX 4K HDR Latino - CMHDD
    Encoded date                : UTC 2022-04-13 04:34:36
    Writing application         : mkvmerge v17.0.0 ('Be Ur Friend') 64-bit
    Writing library             : libebml v1.3.5 + libmatroska v1.4.8

    Video
    ID                          : 1
    Format                      : HEVC
    Format/Info                 : High Efficiency Video Coding
    Format profile              : Main 10@L5.1@High
    HDR format                  : SMPTE ST 2086, HDR10 compatible
    Codec ID                    : V_MPEGH/ISO/HEVC
    Duration                    : 1 h 48 min
    Bit rate                    : 77.9 Mb/s
    Width                       : 3 840 pixels
    Height                      : 2 160 pixels
    Display aspect ratio        : 16:9
    Frame rate mode             : Constant
    Frame rate                  : 23.976 (24000/1001) FPS
    Color space                 : YUV
    Chroma subsampling          : 4:2:0 (Type 2)
    Bit depth                   : 10 bits
    Bits/(Pixel*Frame)          : 0.392
    Stream size                 : 58.9 GiB (91%)
    Default                     : Yes
    Forced                      : No
    Color range                 : Limited
    Color primaries             : BT.2020
    Transfer characteristics    : PQ
    Matrix coefficients         : BT.2020 non-constant
    Mastering display color pri : Display P3
    Mastering display luminance : min: 0.0050 cd/m2, max: 4000 cd/m2
    Maximum Content Light Level : 9978 cd/m2
    Maximum Frame-Average Light : 812 cd/m2

    Audio #1
    ID                          : 2
    Format                      : MLP FBA 16-ch
    Format/Info                 : Meridian Lossless Packing FBA with 16-channel presentation
    Commercial name             : Dolby TrueHD with Dolby Atmos
    Codec ID                    : A_TRUEHD
    Duration                    : 1 h 48 min
    Bit rate mode               : Variable
    Bit rate                    : 4 429 kb/s
    Maximum bit rate            : 7 485 kb/s
    Channel(s)                  : 8 channels
    Channel layout              : L R C LFE Ls Rs Lb Rb
    Sampling rate               : 48.0 kHz
    Frame rate                  : 1 200.000 FPS (40 SPF)
    Compression mode            : Lossless
    Stream size                 : 3.35 GiB (5%)
    Language                    : English
    Default                     : No
    Forced                      : No
    Number of dynamic objects   : 11
    Bed channel count           : 1 channel
    Bed channel configuration   : LFE

    Audio #2
    ID                          : 3
    Format                      : AC-3
    Format/Info                 : Audio Coding 3
    Commercial name             : Dolby Digital
    Codec ID                    : A_AC3
    Duration                    : 1 h 48 min
    Bit rate mode               : Constant
    Bit rate                    : 640 kb/s
    Channel(s)                  : 6 channels
    Channel layout              : L R C LFE Ls Rs
    Sampling rate               : 48.0 kHz
    Frame rate                  : 31.250 FPS (1536 SPF)
    Compression mode            : Lossy
    Stream size                 : 496 MiB (1%)
    Language                    : English
    Service kind                : Complete Main
    Default                     : No
    Forced                      : No

    Audio #3
    ID                          : 4
    Format                      : DTS XLL
    Format/Info                 : Digital Theater Systems
    Commercial name             : DTS-HD Master Audio
    Codec ID                    : A_DTS
    Duration                    : 1 h 48 min
    Bit rate mode               : Variable
    Bit rate                    : 2 293 kb/s
    Channel(s)                  : 6 channels
    Channel layout              : C L R Ls Rs LFE
    Sampling rate               : 48.0 kHz
    Frame rate                  : 93.750 FPS (512 SPF)
    Bit depth                   : 16 bits
    Compression mode            : Lossless
    Stream size                 : 1.74 GiB (3%)
    Language                    : English
    Default                     : No
    Forced                      : No

    Audio #4
    ID                          : 5
    Format                      : AC-3
    Format/Info                 : Audio Coding 3
    Commercial name             : Dolby Digital
    Format settings             : Dolby Surround
    Codec ID                    : A_AC3
    Duration                    : 1 h 48 min
    Bit rate mode               : Constant
    Bit rate                    : 192 kb/s
    Channel(s)                  : 2 channels
    Channel layout              : L R
    Sampling rate               : 48.0 kHz
    Frame rate                  : 31.250 FPS (1536 SPF)
    Compression mode            : Lossy
    Delay relative to video     : 15 ms
    Stream size                 : 149 MiB (0%)
    Language                    : Spanish
    Service kind                : Complete Main
    Default                     : Yes
    Forced                      : No

    Text
    ID                          : 6
    Format                      : PGS
    Muxing mode                 : zlib
    Codec ID                    : S_HDMV/PGS
    Codec ID/Info               : Picture based subtitle format used on BDs/HD-DVDs
    Duration                    : 1 h 47 min
    Bit rate                    : 34.6 kb/s
    Count of elements           : 2631
    Stream size                 : 26.6 MiB (0%)
    Language                    : Spanish
    Default                     : No
    Forced                      : No

    Menu
    00:00:00.000                : en:Chapter 1
    00:07:44.297                : en:Chapter 2
    00:13:23.427                : en:Chapter 3
    00:20:49.122                : en:Chapter 4
    00:25:16.056                : en:Chapter 5
    00:33:52.822                : en:Chapter 6
    00:44:34.880                : en:Chapter 7
    00:49:42.980                : en:Chapter 8
    00:58:45.980                : en:Chapter 9
    01:06:36.784                : en:Chapter 10
    01:13:39.039                : en:Chapter 11
    01:19:22.215                : en:Chapter 12
    01:24:41.493                : en:Chapter 13
    01:29:24.901                : en:Chapter 14
    01:36:05.301                : en:Chapter 15
    01:38:10.759                : en:Chapter 16
     

  • Peso: 64.7 GiB

Sinopsis

Han pasado cinco años desde que los Cazafantasmas entraron por última vez en acción. El doctor Peter Venkman, notable parapsicólogo de persuasivos encantos, ha quedado relegado a maestro de ceremonias de un programa de televisión donde se discuten fenómenos psíquicos. Ray Stantz y su colega Winston Zeddemore se ganan la vida entreteniendo a niños en fiestas infantiles, y el mago tecnológico Egon Spengler continúa sus investigaciones sobre los efectos de las emociones humanas en el campo de energía psicomagnética. La relación de Dana Barrett con Venkman se disolvió; ella se casó con otro hombre y tuvo un hijo, pero el matrimonio fracasó. Ahora Dana vive sola en Nueva York, criando a Oscar, su bebé de ocho meses, y trabajando como restauradora de cuadros en el Museo de arte de Manhattan, junto a un excéntrico experto en pinturas del periodo romántico, Janosz Poha. Todo parece normal hasta que el cochecito de Oscar rueda por sí solo y se mete entre el peligroso tráfico de la ciudad.

Ficha técnica

Video trailer de la película

Enlaces de descarga

Rip de Bluray

Descargar Ghostbusters II (1989) REMUX 4K HDR Latino – CMHDD


Aportes de DPeliculasHDmega la pass es:dpeliculashdmega.org Aportes de CinemaniaHD la pass es:cinemaniahdd.com
Guardado en : Comedia , Fantasía

Películas relacionadas

descargar Ghostbusters II (1989) REMUX 4K HDR Latino – CMHDD 1080p gratis, Ghostbusters II (1989) REMUX 4K HDR Latino – CMHDD mega 1 link, Ghostbusters II (1989) REMUX 4K HDR Latino – CMHDD pelicula completa, descargar Ghostbusters II (1989) REMUX 4K HDR Latino – CMHDD gratis en mega.

Ghostbusters II (1989) REMUX 4K HDR Latino – CMHDD pelicula full hd, Ghostbusters II (1989) REMUX 4K HDR Latino – CMHDD mega latino, Ghostbusters II (1989) REMUX 4K HDR Latino – CMHDD 4k latino, Ghostbusters II (1989) REMUX 4K HDR Latino – CMHDD pelicula completa, Ghostbusters II (1989) REMUX 4K HDR Latino – CMHDD descargar gratis, descargar Ghostbusters II (1989) REMUX 4K HDR Latino – CMHDD pelicula latino, Ghostbusters II (1989) REMUX 4K HDR Latino – CMHDD 1 link mega, Ghostbusters II (1989) REMUX 4K HDR Latino – CMHDD 1 link google drive, Ghostbusters II (1989) REMUX 4K HDR Latino – CMHDD hd 1080p latino.
Comentarios 0