×

¿Problemas para descargar con Mozilla, EDGE? Deshabilita la opción "Abrir vinculos en una pestaña nueva" tal como lo muestra ésta imagen.

Ghostbusters: El Legado (2021) REMUX 1080p Latino

843 vistas

Información de Ghostbusters: El Legado (2021) REMUX 1080p Latino

Datos de la película

  • Calidad: Full 1080p
  • Audio: Se especifica abajo de la Sinopsis
  • Subtitulos: Español Latino PGS - Ingles PGS
  • Resolución: 1920x1080p
  • Formato: MKV
  • Codec: H.264
  • Encoder: Melkor
  • Mediainfo: Clic para Mostrar Datos Ver
  • Ghostbusters El Legado (2021) REMUX 1080p Latino.mkv
    Format                      : Matroska
    Format version              : Version 4
    File size                   : 26.4 GiB
    Duration                    : 2 h 3 min
    Overall bit rate mode       : Variable
    Overall bit rate            : 30.5 Mb/s
    Movie name                  : Ghostbusters Afterlife (2021) CinemaniaHDD.Net
    Encoded date                : UTC 2024-06-21 05:19:44
    Writing application         : mkvmerge v56.1.0 ('My Friend') 64-bit
    Writing library             : libebml v1.4.2 + libmatroska v1.6.4
    Cover                       : Yes
    Attachments                 : cover.jpg / CINEMANIAHD.png

    Video
    ID                          : 1
    ID in the original source m : 4113 (0x1011)
    Format                      : AVC
    Format/Info                 : Advanced Video Codec
    Format profile              : High@L4.1
    Format settings             : CABAC / 2 Ref Frames
    Format settings, CABAC      : Yes
    Format settings, Reference  : 2 frames
    Format settings, GOP        : M=1, N=10
    Codec ID                    : V_MPEG4/ISO/AVC
    Duration                    : 2 h 3 min
    Bit rate mode               : Variable
    Bit rate                    : 26.9 Mb/s
    Width                       : 1 920 pixels
    Height                      : 1 080 pixels
    Display aspect ratio        : 16:9
    Frame rate mode             : Constant
    Frame rate                  : 23.976 (24000/1001) FPS
    Color space                 : YUV
    Chroma subsampling          : 4:2:0
    Bit depth                   : 8 bits
    Scan type                   : Progressive
    Bits/(Pixel*Frame)          : 0.541
    Stream size                 : 23.3 GiB (88%)
    Title                       : REMUX HD1080p [CinemaniaHDD]
    Default                     : Yes
    Forced                      : Yes
    Original source medium      : Blu-ray

    Audio #1
    ID                          : 2
    ID in the original source m : 4358 (0x1106)
    Format                      : AC-3
    Format/Info                 : Audio Coding 3
    Commercial name             : Dolby Digital
    Codec ID                    : A_AC3
    Duration                    : 2 h 3 min
    Bit rate mode               : Constant
    Bit rate                    : 640 kb/s
    Channel(s)                  : 6 channels
    Channel layout              : L R C LFE Ls Rs
    Sampling rate               : 48.0 kHz
    Frame rate                  : 31.250 FPS (1536 SPF)
    Compression mode            : Lossy
    Stream size                 : 567 MiB (2%)
    Title                       : Español Latino AC3 [CinemaniaHDD]
    Language                    : Spanish
    Service kind                : Complete Main
    Default                     : Yes
    Forced                      : Yes
    Original source medium      : Blu-ray

    Audio #2
    ID                          : 3
    Format                      : E-AC-3
    Format/Info                 : Enhanced AC-3
    Commercial name             : Dolby Digital Plus
    Codec ID                    : A_EAC3
    Duration                    : 2 h 3 min
    Bit rate mode               : Constant
    Bit rate                    : 640 kb/s
    Channel(s)                  : 6 channels
    Channel layout              : L R C LFE Ls Rs
    Sampling rate               : 48.0 kHz
    Frame rate                  : 31.250 FPS (1536 SPF)
    Compression mode            : Lossy
    Delay relative to video     : 927 ms
    Stream size                 : 567 MiB (2%)
    Title                       : Español Latino DDP [CinemaniaHDD]
    Language                    : Spanish
    Service kind                : Complete Main
    Default                     : No
    Forced                      : No

    Audio #3
    ID                          : 4
    ID in the original source m : 4352 (0x1100)
    Format                      : DTS XLL
    Format/Info                 : Digital Theater Systems
    Commercial name             : DTS-HD Master Audio
    Codec ID                    : A_DTS
    Duration                    : 2 h 3 min
    Bit rate mode               : Variable
    Bit rate                    : 2 246 kb/s
    Channel(s)                  : 6 channels
    Channel layout              : C L R Ls Rs LFE
    Sampling rate               : 48.0 kHz
    Frame rate                  : 93.750 FPS (512 SPF)
    Bit depth                   : 16 bits
    Compression mode            : Lossless
    Stream size                 : 1.94 GiB (7%)
    Title                       : Ingles [CinemaniaHDD]
    Language                    : English
    Default                     : No
    Forced                      : No
    Original source medium      : Blu-ray

    Text #1
    ID                          : 5
    Format                      : PGS
    Muxing mode                 : zlib
    Codec ID                    : S_HDMV/PGS
    Codec ID/Info               : Picture based subtitle format used on BDs/HD-DVDs
    Duration                    : 1 h 55 min
    Bit rate                    : 121 b/s
    Count of elements           : 12
    Stream size                 : 103 KiB (0%)
    Title                       : Forzados-PGS [CinemaniaHDD]
    Language                    : Spanish
    Default                     : No
    Forced                      : No

    Text #2
    ID                          : 6
    ID in the original source m : 4616 (0x1208)
    Format                      : PGS
    Muxing mode                 : zlib
    Codec ID                    : S_HDMV/PGS
    Codec ID/Info               : Picture based subtitle format used on BDs/HD-DVDs
    Duration                    : 2 h 2 min
    Bit rate                    : 22.2 kb/s
    Count of elements           : 2392
    Stream size                 : 19.5 MiB (0%)
    Title                       : Español-PGS [CinemaniaHDD]
    Language                    : Spanish
    Default                     : No
    Forced                      : No
    Original source medium      : Blu-ray

    Text #3
    ID                          : 7
    ID in the original source m : 4609 (0x1201)
    Format                      : PGS
    Muxing mode                 : zlib
    Codec ID                    : S_HDMV/PGS
    Codec ID/Info               : Picture based subtitle format used on BDs/HD-DVDs
    Duration                    : 1 h 58 min
    Bit rate                    : 24.9 kb/s
    Count of elements           : 2372
    Stream size                 : 21.0 MiB (0%)
    Title                       : Ingles-PGS [CinemaniaHDD]
    Language                    : English
    Default                     : No
    Forced                      : No
    Original source medium      : Blu-ray

    Text #4
    ID                          : 8
    Format                      : UTF-8
    Codec ID                    : S_TEXT/UTF8
    Codec ID/Info               : UTF-8 Plain Text
    Duration                    : 1 h 55 min
    Bit rate                    : 0 b/s
    Count of elements           : 6
    Stream size                 : 151 Bytes (0%)
    Title                       : Forzados-SRT [CinemaniaHDD]
    Language                    : Spanish
    Default                     : Yes
    Forced                      : Yes

    Text #5
    ID                          : 9
    Format                      : UTF-8
    Codec ID                    : S_TEXT/UTF8
    Codec ID/Info               : UTF-8 Plain Text
    Duration                    : 2 h 2 min
    Bit rate                    : 36 b/s
    Count of elements           : 1196
    Stream size                 : 32.5 KiB (0%)
    Title                       : Español-SRT [CinemaniaHDD]
    Language                    : Spanish
    Default                     : No
    Forced                      : No

    Menu
    00:00:00.000                : Chapter 01
    00:05:07.682                : Chapter 02
    00:12:13.649                : Chapter 03
    00:19:59.615                : Chapter 04
    00:26:29.588                : Chapter 05
    00:32:15.892                : Chapter 06
    00:38:30.725                : Chapter 07
    00:45:47.494                : Chapter 08
    00:52:57.090                : Chapter 09
    00:57:15.765                : Chapter 10
    01:05:06.903                : Chapter 11
    01:11:38.752                : Chapter 12
    01:18:24.324                : Chapter 13
    01:24:32.400                : Chapter 14
    01:31:39.994                : Chapter 15
    01:43:06.221                : Chapter 16

  • Peso: 26.4 GiB

Sinopsis

Descargar Ghostbusters: El Legado (2021) REMUX 1080p Latino. Una madre soltera y sus dos hijos se van a vivir a un pequeño pueblo donde descubrirán su conexión con los orígenes de los Cazafantasmas y el legado secreto que su abuelo les ha dejado.

Español Latino EAC3 5.1 Web-DL & AC3 5.1 Bluray – Ingles DTS-HD 5.1 BD
RESUBIDA!!!

Ficha técnica

Video trailer de la película

Enlaces de descarga

Rip de Bluray

Descargar Ghostbusters: El Legado (2021) REMUX 1080p Latino




Aportes de DPeliculasHDmega la pass es:dpeliculashdmega.org Aportes de CinemaniaHD la pass es:cinemaniahdd.com Aportes recientes:cinemaniahdd.net
Guardado en : Aventura , Comedia , Fantasía , Remux

Películas relacionadas

  • Spider-Man 2 (2004) REMUX 4K HDR Latino – CMHDD

    Spider-Man 2 (2004) REMUX 4K HDR Latino – CMHDD

    2004
    Spider-Man 2 (2004) REMUX 4K HDR Latino – CMHDD

    2h 7m 2004

    Han pasado dos años desde que el tranquilo Peter Parker dejó a Mary Jane Watson, su gran amor, y decidió...

    Director: Trudy Ramirez

    Género: Acción

    Actores: Zachry Rogers

  • Un Heroe Anonimo (2024) REMUX 1080p Latino-CMHDD

    Un Heroe Anonimo (2024) REMUX 1080p Latino-CMHDD

    2024
    Un Heroe Anonimo (2024) REMUX 1080p Latino-CMHDD

    1h 53m 2024

    Descargar Un Heroe Anonimo (2024) REMUX 1080p Latino-CMHDD. Basada en una extraordinaria historia real,...

    Director: Richard Ramsey

    Género: Drama

    Actores: Vin Morreale Jr

  • Scary Movie 5 (2013) REMUX 1080p Latino – CMHDD

    Scary Movie 5 (2013) REMUX 1080p Latino – CMHDD

    2013
    Scary Movie 5 (2013) REMUX 1080p Latino – CMHDD

    1h 28m 2013

    Los felizmente casados Dan y Jody empiezan a observar algunos fenómenos extraños en su casa tras volver...

    Director: Tim Fitzgerald

    Género: Comedia

    Actores: Zoe Pessin

  • Scary Movie 4 (2006) REMUX 1080p Latino – CMHDD

    Scary Movie 4 (2006) REMUX 1080p Latino – CMHDD

    2006
    Scary Movie 4 (2006) REMUX 1080p Latino – CMHDD

    1h 29m 2006

    Una nueva entrega de la franquicia que parodia los últimos títulos del cine americano. Esta vez, la...

    Director: Steve Eathorne

    Género: Comedia

    Actores: YoungBloodZ

  • Scary Movie 3 (2003) REMUX 1080p Latino – CMHDD

    Scary Movie 3 (2003) REMUX 1080p Latino – CMHDD

    2003
    Scary Movie 3 (2003) REMUX 1080p Latino – CMHDD

    1h 25m 2003

    Después de haberlo pasado fatal -eso siempre según se mire- en las dos anteriores entregas, Cindy Campbell...

    Director: Wendy L. Adjoury

    Género: Comedia

    Actores: William S. Taylor

descargar Ghostbusters: El Legado (2021) REMUX 1080p Latino Full 1080p 1080p gratis, Ghostbusters: El Legado (2021) REMUX 1080p Latino Full 1080p mega 1 link, Ghostbusters: El Legado (2021) REMUX 1080p Latino Full 1080p pelicula completa, descargar Ghostbusters: El Legado (2021) REMUX 1080p Latino Full 1080p gratis en mega.

Ghostbusters: El Legado (2021) REMUX 1080p Latino pelicula full hd, Ghostbusters: El Legado (2021) REMUX 1080p Latino mega latino, Ghostbusters: El Legado (2021) REMUX 1080p Latino 4k latino, Ghostbusters: El Legado (2021) REMUX 1080p Latino pelicula completa, Ghostbusters: El Legado (2021) REMUX 1080p Latino descargar gratis, descargar Ghostbusters: El Legado (2021) REMUX 1080p Latino pelicula latino, Ghostbusters: El Legado (2021) REMUX 1080p Latino 1 link mega, Ghostbusters: El Legado (2021) REMUX 1080p Latino 1 link google drive, Ghostbusters: El Legado (2021) REMUX 1080p Latino hd 1080p latino.
Comentarios 0