×

¿Problemas para descargar con Mozilla, EDGE? Deshabilita la opción "Abrir vinculos en una pestaña nueva" tal como lo muestra ésta imagen.

Ghostbusters: El Legado (2021) HD 1080p Latino

899 vistas

Información de Ghostbusters: El Legado (2021) HD 1080p Latino

Datos de la película

  • Calidad: 1080p
  • Audio: Español Latino AC3 5.1 WEB-DL - Ingles AC3 5.1 BLURAY
  • Subtitulos: Español Latino SRT- FORZADOS SRT
  • Resolución: 1920x800p
  • Formato: MKV
  • Codec: H.264
  • Encoder: Melkor
  • Mediainfo: Clic para Mostrar Datos Ver
  • Ghostbusters El Legado (2021) HD 1080p Latino.mkv
    Format                      : Matroska
    Format version              : Version 4
    File size                   : 4.04 GiB
    Duration                    : 2 h 3 min
    Overall bit rate            : 4 672 kb/s
    Movie name                  : Ghostbusters Afterlife (2021) CinemaniaHDD.Net
    Encoded date                : UTC 2022-01-27 05:32:48
    Writing application         : mkvmerge v56.1.0 ('My Friend') 64-bit
    Writing library             : libebml v1.4.2 + libmatroska v1.6.4
    Attachments                 : CINEMANIAHD.png

    Video
    ID                          : 1
    Format                      : AVC
    Format/Info                 : Advanced Video Codec
    Format profile              : High@L4.1
    Format settings             : CABAC / 5 Ref Frames
    Format settings, CABAC      : Yes
    Format settings, Reference  : 5 frames
    Codec ID                    : V_MPEG4/ISO/AVC
    Duration                    : 2 h 3 min
    Bit rate                    : 3 582 kb/s
    Width                       : 1 920 pixels
    Height                      : 800 pixels
    Display aspect ratio        : 2.40:1
    Frame rate mode             : Constant
    Frame rate                  : 23.976 (24000/1001) FPS
    Color space                 : YUV
    Chroma subsampling          : 4:2:0
    Bit depth                   : 8 bits
    Scan type                   : Progressive
    Bits/(Pixel*Frame)          : 0.097
    Stream size                 : 3.10 GiB (77%)
    Title                       : HD1080p [CinemaniaHDD]
    Writing library             : x264 core 163 r3059 b684ebe0
    Encoding settings           : cabac=1 / ref=5 / deblock=1:-1:-1 / analyse=0x3:0x133 / me=umh / subme=9 / psy=1 / psy_rd=1.00:0.15 / mixed_ref=1 / me_range=16 / chroma_me=1 / trellis=2 / 8x8dct=1 / cqm=0 / deadzone=21,11 / fast_pskip=1 / chroma_qp_offset=-3 / threads=24 / lookahead_threads=2 / sliced_threads=0 / nr=0 / decimate=1 / interlaced=0 / bluray_compat=0 / constrained_intra=0 / bframes=3 / b_pyramid=2 / b_adapt=2 / b_bias=0 / direct=3 / weightb=1 / open_gop=0 / weightp=2 / keyint=240 / keyint_min=24 / scenecut=40 / intra_refresh=0 / rc_lookahead=60 / rc=crf / mbtree=1 / crf=20.0 / qcomp=0.60 / qpmin=0 / qpmax=69 / qpstep=4 / vbv_maxrate=62500 / vbv_bufsize=78125 / crf_max=0.0 / nal_hrd=none / filler=0 / ip_ratio=1.40 / aq=1:1.00
    Default                     : Yes
    Forced                      : Yes
    Color range                 : Limited
    Color primaries             : BT.709
    Transfer characteristics    : BT.709
    Matrix coefficients         : BT.709

    Audio #1
    ID                          : 2
    Format                      : AC-3
    Format/Info                 : Audio Coding 3
    Commercial name             : Dolby Digital
    Codec ID                    : A_AC3
    Duration                    : 2 h 3 min
    Bit rate mode               : Constant
    Bit rate                    : 640 kb/s
    Channel(s)                  : 6 channels
    Channel layout              : L R C LFE Ls Rs
    Sampling rate               : 48.0 kHz
    Frame rate                  : 31.250 FPS (1536 SPF)
    Compression mode            : Lossy
    Delay relative to video     : 915 ms
    Stream size                 : 567 MiB (14%)
    Title                       : Español Latino [CinemaniaHDD]
    Language                    : Spanish
    Service kind                : Complete Main
    Default                     : Yes
    Forced                      : Yes

    Audio #2
    ID                          : 3
    Format                      : AC-3
    Format/Info                 : Audio Coding 3
    Commercial name             : Dolby Digital
    Codec ID                    : A_AC3
    Duration                    : 2 h 3 min
    Bit rate mode               : Constant
    Bit rate                    : 448 kb/s
    Channel(s)                  : 6 channels
    Channel layout              : L R C LFE Ls Rs
    Sampling rate               : 48.0 kHz
    Frame rate                  : 31.250 FPS (1536 SPF)
    Compression mode            : Lossy
    Delay relative to video     : -5 ms
    Stream size                 : 397 MiB (10%)
    Title                       : Ingles [CinemaniaHDD]
    Language                    : English
    Service kind                : Complete Main
    Default                     : No
    Forced                      : No

    Text #1
    ID                          : 4
    Format                      : UTF-8
    Codec ID                    : S_TEXT/UTF8
    Codec ID/Info               : UTF-8 Plain Text
    Duration                    : 1 h 55 min
    Bit rate                    : 0 b/s
    Count of elements           : 6
    Stream size                 : 151 Bytes (0%)
    Title                       : Forzados-SRT [CinemaniaHDD]
    Language                    : Spanish
    Default                     : Yes
    Forced                      : Yes

    Text #2
    ID                          : 5
    Format                      : UTF-8
    Codec ID                    : S_TEXT/UTF8
    Codec ID/Info               : UTF-8 Plain Text
    Duration                    : 2 h 2 min
    Bit rate                    : 36 b/s
    Count of elements           : 1196
    Stream size                 : 32.5 KiB (0%)
    Title                       : Español-SRT [CinemaniaHDD]
    Language                    : Spanish
    Default                     : No
    Forced                      : No

    Text #3
    ID                          : 6
    Format                      : UTF-8
    Codec ID                    : S_TEXT/UTF8
    Codec ID/Info               : UTF-8 Plain Text
    Duration                    : 1 h 58 min
    Bit rate                    : 39 b/s
    Count of elements           : 1185
    Stream size                 : 34.1 KiB (0%)
    Title                       : Ingles [CinemaniaHDD]
    Language                    : English
    Default                     : No
    Forced                      : No

    Menu
    00:00:00.000                : Chapter 01
    00:05:07.682                : Chapter 02
    00:12:13.650                : Chapter 03
    00:19:59.615                : Chapter 04
    00:26:29.588                : Chapter 05
    00:32:15.892                : Chapter 06
    00:38:30.725                : Chapter 07
    00:45:47.495                : Chapter 08
    00:52:57.091                : Chapter 09
    00:57:15.766                : Chapter 10
    01:05:06.903                : Chapter 11
    01:11:38.753                : Chapter 12
    01:18:24.325                : Chapter 13
    01:24:32.401                : Chapter 14
    01:31:39.994                : Chapter 15
    01:43:06.222                : Chapter 16

    Ghostbusters El Legado (2021) BDRip 1080p Latino[CMHDD].mkv
    Size: 9.86 GiB
    Duracion: 2 h 3 min
    Movie name : Ghostbusters Afterlife (2021) CinemaniaHDD.Net
    Video:
    Format : AVC x264 High@L4.1
    Bit rate : 9 468 kb/s
    Width : 1920
    Height : 800
    Frame rate : 23.976 (24000/1001) FPS
    Audio #1
    Format : AC-3 Dolby Digital
    Bit rate : 640 kb/s
    Channel(s) : 6 channels
    Sampling rate : 48.0 kHz
    Title : Español Latino AC3 [CinemaniaHDD]
    Language : Spanish
    Audio #2
    Format: E-AC-3 Dolby Digital Plus
    Bit rate: 640 kb/s
    Channel(s): 6 channels
    Sampling rate: 48.0 kHz
    Title: Español Latino EAC3 [CinemaniaHDD]
    Language: Spanish
    Audio #3
    Format : AC-3 Dolby Digital
    Bit rate : 640 kb/s
    Channel(s) : 6 channels
    Sampling rate : 48.0 kHz
    Title : Ingles [CinemaniaHDD]
    Language : English
    Subtitulos: Forzados-SRT, Español-SRT, Ingles-SRT

  • Peso: 4.04 GiB | 9.86 GiB

Sinopsis

Descargar Ghostbusters: El Legado (2021) HD 1080p Latino. Una madre soltera y sus dos hijos se van a vivir a un pequeño pueblo donde descubrirán su conexión con los orígenes de los Cazafantasmas y el legado secreto que su abuelo les ha dejado.

Nota: Version Ligera & Pesada!!!

Ficha técnica

Video trailer de la película

Enlaces de descarga

Rip de Bluray

Descargar Ghostbusters: El Legado (2021) HD 1080p Latino




Aportes de DPeliculasHDmega la pass es:dpeliculashdmega.org Aportes de CinemaniaHD la pass es:cinemaniahdd.com
Guardado en : Aventura , Comedia , Fantasía , HD 1080p

Películas relacionadas

descargar Ghostbusters: El Legado (2021) HD 1080p Latino 1080p 1080p gratis, Ghostbusters: El Legado (2021) HD 1080p Latino 1080p mega 1 link, Ghostbusters: El Legado (2021) HD 1080p Latino 1080p pelicula completa, descargar Ghostbusters: El Legado (2021) HD 1080p Latino 1080p gratis en mega.

Ghostbusters: El Legado (2021) HD 1080p Latino pelicula full hd, Ghostbusters: El Legado (2021) HD 1080p Latino mega latino, Ghostbusters: El Legado (2021) HD 1080p Latino 4k latino, Ghostbusters: El Legado (2021) HD 1080p Latino pelicula completa, Ghostbusters: El Legado (2021) HD 1080p Latino descargar gratis, descargar Ghostbusters: El Legado (2021) HD 1080p Latino pelicula latino, Ghostbusters: El Legado (2021) HD 1080p Latino 1 link mega, Ghostbusters: El Legado (2021) HD 1080p Latino 1 link google drive, Ghostbusters: El Legado (2021) HD 1080p Latino hd 1080p latino.
Comentarios 0