×

¿Problemas para descargar con Mozilla, EDGE? Deshabilita la opción "Abrir vinculos en una pestaña nueva" tal como lo muestra ésta imagen.

Ghostbusters Afterlife (2021) REMUX 4K HDR Latino – CMHDD

428 vistas

Información de Ghostbusters Afterlife (2021) REMUX 4K HDR Latino – CMHDD

Datos de la película

  • Calidad: 4K HDR
  • Audio: Se especifica abajo de la Sinopsis
  • Subtitulos: Español Latino PGS
  • Resolución: 3840x2160p
  • Formato: MKV
  • Codec: H.264
  • Encoder: Dracarys
  • Mediainfo: Clic para Mostrar Datos Ver
  • Format                      : Matroska
    Format version              : Version 4
    File size                   : 45.5 GiB
    Duration                    : 2 h 3 min
    Overall bit rate mode       : Variable
    Overall bit rate            : 52.5 Mb/s
    Movie name                  : Ghostbusters: Afterlife (2021) REMUX 4K HDR Latino - CMHDD
    Encoded date                : UTC 2022-02-02 15:13:52
    Writing application         : mkvmerge v17.0.0 ('Be Ur Friend') 64-bit
    Writing library             : libebml v1.3.5 + libmatroska v1.4.8

    Video
    ID                          : 1
    Format                      : HEVC
    Format/Info                 : High Efficiency Video Coding
    Format profile              : Main 10@L5.1@High
    HDR format                  : SMPTE ST 2086, HDR10 compatible
    Codec ID                    : V_MPEGH/ISO/HEVC
    Duration                    : 2 h 3 min
    Bit rate                    : 47.2 Mb/s
    Width                       : 3 840 pixels
    Height                      : 2 160 pixels
    Display aspect ratio        : 16:9
    Frame rate mode             : Constant
    Frame rate                  : 23.976 (24000/1001) FPS
    Color space                 : YUV
    Chroma subsampling          : 4:2:0 (Type 2)
    Bit depth                   : 10 bits
    Bits/(Pixel*Frame)          : 0.237
    Stream size                 : 40.9 GiB (90%)
    Default                     : Yes
    Forced                      : No
    Color range                 : Limited
    Color primaries             : BT.2020
    Transfer characteristics    : PQ
    Matrix coefficients         : BT.2020 non-constant
    Mastering display color pri : Display P3
    Mastering display luminance : min: 0.0050 cd/m2, max: 4000 cd/m2
    Maximum Content Light Level : 1059 cd/m2
    Maximum Frame-Average Light : 385 cd/m2

    Audio #1
    ID                          : 2
    Format                      : MLP FBA 16-ch
    Format/Info                 : Meridian Lossless Packing FBA with 16-channel presentation
    Commercial name             : Dolby TrueHD with Dolby Atmos
    Codec ID                    : A_TRUEHD
    Duration                    : 2 h 3 min
    Bit rate mode               : Variable
    Bit rate                    : 3 981 kb/s
    Maximum bit rate            : 7 494 kb/s
    Channel(s)                  : 8 channels
    Channel layout              : L R C LFE Ls Rs Lb Rb
    Sampling rate               : 48.0 kHz
    Frame rate                  : 1 200.000 FPS (40 SPF)
    Compression mode            : Lossless
    Stream size                 : 3.45 GiB (8%)
    Language                    : English
    Default                     : No
    Forced                      : No
    Number of dynamic objects   : 11
    Bed channel count           : 1 channel
    Bed channel configuration   : LFE

    Audio #2
    ID                          : 3
    Format                      : AC-3
    Format/Info                 : Audio Coding 3
    Commercial name             : Dolby Digital
    Codec ID                    : A_AC3
    Duration                    : 2 h 3 min
    Bit rate mode               : Constant
    Bit rate                    : 640 kb/s
    Channel(s)                  : 6 channels
    Channel layout              : L R C LFE Ls Rs
    Sampling rate               : 48.0 kHz
    Frame rate                  : 31.250 FPS (1536 SPF)
    Compression mode            : Lossy
    Stream size                 : 567 MiB (1%)
    Language                    : English
    Service kind                : Complete Main
    Default                     : No
    Forced                      : No

    Audio #3
    ID                          : 4
    Format                      : AC-3
    Format/Info                 : Audio Coding 3
    Commercial name             : Dolby Digital
    Codec ID                    : A_AC3
    Duration                    : 2 h 3 min
    Bit rate mode               : Constant
    Bit rate                    : 640 kb/s
    Channel(s)                  : 6 channels
    Channel layout              : L R C LFE Ls Rs
    Sampling rate               : 48.0 kHz
    Frame rate                  : 31.250 FPS (1536 SPF)
    Compression mode            : Lossy
    Delay relative to video     : 24 ms
    Stream size                 : 567 MiB (1%)
    Language                    : Spanish
    Service kind                : Complete Main
    Default                     : Yes
    Forced                      : No

    Text
    ID                          : 5
    Format                      : PGS
    Muxing mode                 : zlib
    Codec ID                    : S_HDMV/PGS
    Codec ID/Info               : Picture based subtitle format used on BDs/HD-DVDs
    Duration                    : 2 h 2 min
    Bit rate                    : 22.2 kb/s
    Count of elements           : 2392
    Stream size                 : 19.5 MiB (0%)
    Language                    : Spanish
    Default                     : No
    Forced                      : No

    Menu
    00:00:00.000                : en:Chapter 1
    00:05:07.682                : en:Chapter 2
    00:12:13.649                : en:Chapter 3
    00:19:59.615                : en:Chapter 4
    00:26:29.588                : en:Chapter 5
    00:32:15.892                : en:Chapter 6
    00:38:30.725                : en:Chapter 7
    00:45:47.494                : en:Chapter 8
    00:52:57.090                : en:Chapter 9
    00:57:15.765                : en:Chapter 10
    01:05:06.903                : en:Chapter 11
    01:11:38.752                : en:Chapter 12
    01:18:24.324                : en:Chapter 13
    01:24:32.400                : en:Chapter 14
    01:31:39.994                : en:Chapter 15
    01:43:06.221                : en:Chapter 16

  • Peso: 45.5 GiB

Sinopsis

Una madre soltera y sus dos hijos se van a vivir a un pequeño pueblo donde descubrirán su conexión con los orígenes de los Cazafantasmas y el legado secreto que su abuelo les ha dejado.

 

Latino: AC3 5.1  –  Inglés: TrueHD 7.1

Ficha técnica

Video trailer de la película

Enlaces de descarga

Rip de Bluray

Descargar Ghostbusters Afterlife (2021) REMUX 4K HDR Latino – CMHDD


Aportes de DPeliculasHDmega la pass es:dpeliculashdmega.org Aportes de CinemaniaHD la pass es:cinemaniahdd.com
Guardado en : Aventura , Comedia , Fantasía

Películas relacionadas

descargar Ghostbusters Afterlife (2021) REMUX 4K HDR Latino – CMHDD 4K HDR 1080p gratis, Ghostbusters Afterlife (2021) REMUX 4K HDR Latino – CMHDD 4K HDR mega 1 link, Ghostbusters Afterlife (2021) REMUX 4K HDR Latino – CMHDD 4K HDR pelicula completa, descargar Ghostbusters Afterlife (2021) REMUX 4K HDR Latino – CMHDD 4K HDR gratis en mega.

Ghostbusters Afterlife (2021) REMUX 4K HDR Latino – CMHDD pelicula full hd, Ghostbusters Afterlife (2021) REMUX 4K HDR Latino – CMHDD mega latino, Ghostbusters Afterlife (2021) REMUX 4K HDR Latino – CMHDD 4k latino, Ghostbusters Afterlife (2021) REMUX 4K HDR Latino – CMHDD pelicula completa, Ghostbusters Afterlife (2021) REMUX 4K HDR Latino – CMHDD descargar gratis, descargar Ghostbusters Afterlife (2021) REMUX 4K HDR Latino – CMHDD pelicula latino, Ghostbusters Afterlife (2021) REMUX 4K HDR Latino – CMHDD 1 link mega, Ghostbusters Afterlife (2021) REMUX 4K HDR Latino – CMHDD 1 link google drive, Ghostbusters Afterlife (2021) REMUX 4K HDR Latino – CMHDD hd 1080p latino.
Comentarios 0