×

¿Problemas para descargar con Mozilla, EDGE? Deshabilita la opción "Abrir vinculos en una pestaña nueva" tal como lo muestra ésta imagen.

Ghostbusters (1984) REMUX 4K HDR Latino – CMHDD

417 vistas

Información de Ghostbusters (1984) REMUX 4K HDR Latino – CMHDD

Datos de la película

  • Calidad: 4K HDR
  • Audio: Español Latino AC3 5.1 BLURAY - Ingles DTS 5.1 BLURAY
  • Subtitulos: Español Latino PGS
  • Resolución: 3840x2160p
  • Formato: MKV
  • Codec: H.264
  • Encoder: Dracarys
  • Mediainfo: Clic para Mostrar Datos Ver
  • Format                      : Matroska
    Format version              : Version 4
    File size                   : 63.5 GiB
    Duration                    : 1 h 45 min
    Overall bit rate mode       : Variable
    Overall bit rate            : 86.5 Mb/s
    Movie name                  : Ghostbusters (1984) REMUX 4K HDR Latino - CMHDD
    Encoded date                : UTC 2022-04-13 01:52:43
    Writing application         : mkvmerge v17.0.0 ('Be Ur Friend') 64-bit
    Writing library             : libebml v1.3.5 + libmatroska v1.4.8

    Video
    ID                          : 1
    Format                      : HEVC
    Format/Info                 : High Efficiency Video Coding
    Format profile              : Main 10@L5.1@High
    HDR format                  : SMPTE ST 2086, HDR10 compatible
    Codec ID                    : V_MPEGH/ISO/HEVC
    Duration                    : 1 h 45 min
    Bit rate                    : 78.7 Mb/s
    Width                       : 3 840 pixels
    Height                      : 2 160 pixels
    Display aspect ratio        : 16:9
    Frame rate mode             : Constant
    Frame rate                  : 23.976 (24000/1001) FPS
    Color space                 : YUV
    Chroma subsampling          : 4:2:0 (Type 2)
    Bit depth                   : 10 bits
    Bits/(Pixel*Frame)          : 0.396
    Stream size                 : 57.8 GiB (91%)
    Default                     : Yes
    Forced                      : No
    Color range                 : Limited
    Color primaries             : BT.2020
    Transfer characteristics    : PQ
    Matrix coefficients         : BT.2020 non-constant
    Mastering display color pri : Display P3
    Mastering display luminance : min: 0.0050 cd/m2, max: 4000 cd/m2
    Maximum Content Light Level : 9978 cd/m2
    Maximum Frame-Average Light : 2283 cd/m2

    Audio #1
    ID                          : 2
    Format                      : MLP FBA 16-ch
    Format/Info                 : Meridian Lossless Packing FBA with 16-channel presentation
    Commercial name             : Dolby TrueHD with Dolby Atmos
    Codec ID                    : A_TRUEHD
    Duration                    : 1 h 45 min
    Bit rate mode               : Variable
    Bit rate                    : 4 207 kb/s
    Maximum bit rate            : 7 431 kb/s
    Channel(s)                  : 8 channels
    Channel layout              : L R C LFE Ls Rs Lb Rb
    Sampling rate               : 48.0 kHz
    Frame rate                  : 1 200.000 FPS (40 SPF)
    Compression mode            : Lossless
    Stream size                 : 3.09 GiB (5%)
    Language                    : English
    Default                     : No
    Forced                      : No
    Number of dynamic objects   : 11
    Bed channel count           : 1 channel
    Bed channel configuration   : LFE

    Audio #2
    ID                          : 3
    Format                      : AC-3
    Format/Info                 : Audio Coding 3
    Commercial name             : Dolby Digital
    Codec ID                    : A_AC3
    Duration                    : 1 h 45 min
    Bit rate mode               : Constant
    Bit rate                    : 640 kb/s
    Channel(s)                  : 6 channels
    Channel layout              : L R C LFE Ls Rs
    Sampling rate               : 48.0 kHz
    Frame rate                  : 31.250 FPS (1536 SPF)
    Compression mode            : Lossy
    Stream size                 : 481 MiB (1%)
    Language                    : English
    Service kind                : Complete Main
    Default                     : No
    Forced                      : No

    Audio #3
    ID                          : 4
    Format                      : DTS XLL
    Format/Info                 : Digital Theater Systems
    Commercial name             : DTS-HD Master Audio
    Codec ID                    : A_DTS
    Duration                    : 1 h 45 min
    Bit rate mode               : Variable
    Bit rate                    : 2 201 kb/s
    Channel(s)                  : 6 channels
    Channel layout              : C L R Ls Rs LFE
    Sampling rate               : 48.0 kHz
    Frame rate                  : 93.750 FPS (512 SPF)
    Bit depth                   : 16 bits
    Compression mode            : Lossless
    Stream size                 : 1.62 GiB (3%)
    Language                    : English
    Default                     : No
    Forced                      : No

    Audio #4
    ID                          : 5
    Format                      : AC-3
    Format/Info                 : Audio Coding 3
    Commercial name             : Dolby Digital
    Codec ID                    : A_AC3
    Duration                    : 1 h 45 min
    Bit rate mode               : Constant
    Bit rate                    : 640 kb/s
    Channel(s)                  : 6 channels
    Channel layout              : L R C LFE Ls Rs
    Sampling rate               : 48.0 kHz
    Frame rate                  : 31.250 FPS (1536 SPF)
    Compression mode            : Lossy
    Delay relative to video     : 15 ms
    Stream size                 : 481 MiB (1%)
    Language                    : Spanish
    Service kind                : Complete Main
    Default                     : Yes
    Forced                      : No

    Text
    ID                          : 6
    Format                      : PGS
    Muxing mode                 : zlib
    Codec ID                    : S_HDMV/PGS
    Codec ID/Info               : Picture based subtitle format used on BDs/HD-DVDs
    Duration                    : 1 h 36 min
    Bit rate                    : 34.9 kb/s
    Count of elements           : 2287
    Stream size                 : 24.1 MiB (0%)
    Language                    : Spanish
    Default                     : No
    Forced                      : No

    Menu
    00:00:00.000                : en:Chapter 1
    00:06:39.065                : en:Chapter 2
    00:15:46.445                : en:Chapter 3
    00:21:50.058                : en:Chapter 4
    00:28:35.755                : en:Chapter 5
    00:34:51.964                : en:Chapter 6
    00:39:06.677                : en:Chapter 7
    00:48:46.715                : en:Chapter 8
    00:52:15.882                : en:Chapter 9
    00:55:04.050                : en:Chapter 10
    01:04:33.411                : en:Chapter 11
    01:10:41.946                : en:Chapter 12
    01:13:35.285                : en:Chapter 13
    01:18:58.525                : en:Chapter 14
    01:25:17.028                : en:Chapter 15
    01:30:44.730                : en:Chapter 16

  • Peso: 63.5 GiB

Sinopsis

Los Drs. Venkman, Stantz y Epengler, son tres doctores en parapsicología que se quedan sin empleo tras quedar excluidos de una beca universitaria de investigación. Entonces deciden formar la empresa «Los Cazafantasmas», dedicada a limpiar Nueva York de ectoplasmas. El aumento repentino de apariciones espectrales en la Gran Manzana será el presagio de la llegada de un peligroso y poderoso demonio.

Ficha técnica

  • Titulo original: Ghostbusters
  • Fecha de lanzamiento: 08-06-1984 (United States of America)
  • Director: Ivan Reitman
  • Género: Comedia, Fantasía

Video trailer de la película

Enlaces de descarga

Rip de Bluray

Descargar Ghostbusters (1984) REMUX 4K HDR Latino – CMHDD


Aportes de DPeliculasHDmega la pass es:dpeliculashdmega.org Aportes de CinemaniaHD la pass es:cinemaniahdd.com
Guardado en : Comedia , Fantasía

Películas relacionadas

  • Hombre de familia (2000) REMUX 1080p Latino

    Hombre de familia (2000) REMUX 1080p Latino

    2000
    Hombre de familia (2000) REMUX 1080p Latino

    2h 1m 2000

    Descargar Hombre de familia (2000) REMUX 1080p Latino. Jack Campbell es un egocéntrico broker de Wall...

    Director: Robert Schroer

    Género: Comedia

    Actores: Wass Stevens

  • Te Amo Brother (2009) REMUX 1080p Latino

    Te Amo Brother (2009) REMUX 1080p Latino

    2009
    Te Amo Brother (2009) REMUX 1080p Latino

    1h 45m 2009

    Descargar Te Amo Brother (2009) REMUX 1080p Latino. Peter Klaven (Paul Rudd) es un joven que vive muy...

    Director: Scott Robertson

    Género: Comedia

    Actores: Vicki Davis

  • Asústame (2020) HD 1080p Latino

    Asústame (2020) HD 1080p Latino

    2020
    Asústame (2020) HD 1080p Latino

    1h 44m 2020

    Descargar Asústame (2020) HD 1080p Latino. Durante un corte de energía, dos extraños cuentan historias...

    Director: Josh Ruben

    Género: Comedia

    Actores: Rebecca Drysdale

descargar Ghostbusters (1984) REMUX 4K HDR Latino – CMHDD 4K HDR 1080p gratis, Ghostbusters (1984) REMUX 4K HDR Latino – CMHDD 4K HDR mega 1 link, Ghostbusters (1984) REMUX 4K HDR Latino – CMHDD 4K HDR pelicula completa, descargar Ghostbusters (1984) REMUX 4K HDR Latino – CMHDD 4K HDR gratis en mega.

Ghostbusters (1984) REMUX 4K HDR Latino – CMHDD pelicula full hd, Ghostbusters (1984) REMUX 4K HDR Latino – CMHDD mega latino, Ghostbusters (1984) REMUX 4K HDR Latino – CMHDD 4k latino, Ghostbusters (1984) REMUX 4K HDR Latino – CMHDD pelicula completa, Ghostbusters (1984) REMUX 4K HDR Latino – CMHDD descargar gratis, descargar Ghostbusters (1984) REMUX 4K HDR Latino – CMHDD pelicula latino, Ghostbusters (1984) REMUX 4K HDR Latino – CMHDD 1 link mega, Ghostbusters (1984) REMUX 4K HDR Latino – CMHDD 1 link google drive, Ghostbusters (1984) REMUX 4K HDR Latino – CMHDD hd 1080p latino.
Comentarios 0