×

¿Problemas para descargar con Mozilla, EDGE? Deshabilita la opción "Abrir vinculos en una pestaña nueva" tal como lo muestra ésta imagen.

Ghost Rider: Espíritu de venganza (2011) REMUX 1080p Latino

673 vistas

Información de Ghost Rider: Espíritu de venganza (2011) REMUX 1080p Latino

Datos de la película

  • Calidad: Full 1080p
  • Audio: Español Latino AC3 5.1 BLURAY - Ingles DTS 5.1 BLURAY
  • Subtitulos: Español Latino PGS - Ingles PGS
  • Resolución: 1920x1080p
  • Formato: MKV
  • Codec: H.264
  • Encoder: CinefiloCool
  • Mediainfo: Clic para Mostrar Datos Ver
  • Ghost Rider Espiritu De Venganza (2011) REMUX 1080p Latino-CMHDD.mkv
    Format                      : Matroska
    Format version              : Version 4
    File size                   : 17.2 GiB
    Duration                    : 1 h 35 min
    Overall bit rate mode       : Variable
    Overall bit rate            : 25.8 Mb/s
    Movie name                  : Ghost Rider Spirit of Vengeance (2011) CinemaniaHDD.Net
    Encoded date                : UTC 2021-01-04 04:27:26
    Writing application         : mkvmerge v51.0.0 ('I Wish') 64-bit
    Writing library             : libebml v1.4.0 + libmatroska v1.6.2
    Attachments                 : CINEMANIAHD.png

    Video
    ID                          : 1
    Format                      : AVC
    Format/Info                 : Advanced Video Codec
    Format profile              : High@L4.1
    Format settings             : CABAC / 4 Ref Frames
    Format settings, CABAC      : Yes
    Format settings, Reference  : 4 frames
    Codec ID                    : V_MPEG4/ISO/AVC
    Duration                    : 1 h 35 min
    Bit rate mode               : Variable
    Bit rate                    : 22.8 Mb/s
    Maximum bit rate            : 32.0 Mb/s
    Width                       : 1 920 pixels
    Height                      : 1 080 pixels
    Display aspect ratio        : 16:9
    Frame rate mode             : Constant
    Frame rate                  : 23.976 (24000/1001) FPS
    Color space                 : YUV
    Chroma subsampling          : 4:2:0
    Bit depth                   : 8 bits
    Scan type                   : Progressive
    Bits/(Pixel*Frame)          : 0.460
    Stream size                 : 15.2 GiB (89%)
    Title                       : REMUX HD1080p [CinemaniaHDD]
    Language                    : English
    Default                     : Yes
    Forced                      : No

    Audio #1
    ID                          : 2
    Format                      : AC-3
    Format/Info                 : Audio Coding 3
    Commercial name             : Dolby Digital
    Codec ID                    : A_AC3
    Duration                    : 1 h 35 min
    Bit rate mode               : Constant
    Bit rate                    : 448 kb/s
    Channel(s)                  : 6 channels
    Channel layout              : L R C LFE Ls Rs
    Sampling rate               : 48.0 kHz
    Frame rate                  : 31.250 FPS (1536 SPF)
    Compression mode            : Lossy
    Stream size                 : 306 MiB (2%)
    Title                       : Español Latino [CinemaniaHDD]
    Language                    : Spanish
    Service kind                : Complete Main
    Default                     : Yes
    Forced                      : No

    Audio #2
    ID                          : 3
    Format                      : DTS XLL
    Format/Info                 : Digital Theater Systems
    Commercial name             : DTS-HD Master Audio
    Codec ID                    : A_DTS
    Duration                    : 1 h 35 min
    Bit rate mode               : Variable
    Bit rate                    : 2 452 kb/s
    Channel(s)                  : 6 channels
    Channel layout              : C L R Ls Rs LFE
    Sampling rate               : 48.0 kHz
    Frame rate                  : 93.750 FPS (512 SPF)
    Bit depth                   : 16 bits
    Compression mode            : Lossless
    Stream size                 : 1.64 GiB (10%)
    Title                       : Ingles [CinemaniaHDD]
    Language                    : English
    Default                     : No
    Forced                      : No

    Text #1
    ID                          : 4
    Format                      : PGS
    Muxing mode                 : zlib
    Codec ID                    : S_HDMV/PGS
    Codec ID/Info               : Picture based subtitle format used on BDs/HD-DVDs
    Duration                    : 1 h 28 min
    Bit rate                    : 36.4 kb/s
    Count of elements           : 2270
    Stream size                 : 22.9 MiB (0%)
    Title                       : Español-PGS [CinemaniaHDD]
    Language                    : Spanish
    Default                     : No
    Forced                      : No

    Text #2
    ID                          : 5
    Format                      : PGS
    Muxing mode                 : zlib
    Codec ID                    : S_HDMV/PGS
    Codec ID/Info               : Picture based subtitle format used on BDs/HD-DVDs
    Duration                    : 1 h 27 min
    Bit rate                    : 18.4 kb/s
    Count of elements           : 1618
    Stream size                 : 11.5 MiB (0%)
    Title                       : Ingles-PGS [CinemaniaHDD]
    Language                    : Spanish
    Default                     : No
    Forced                      : No

    Text #3
    ID                          : 6
    Format                      : UTF-8
    Codec ID                    : S_TEXT/UTF8
    Codec ID/Info               : UTF-8 Plain Text
    Duration                    : 1 h 5 min
    Bit rate                    : 0 b/s
    Count of elements           : 3
    Stream size                 : 81.0 Bytes (0%)
    Title                       : Forzados-SRT [CinemaniaHDD]
    Language                    : Spanish
    Default                     : Yes
    Forced                      : No

    Text #4
    ID                          : 7
    Format                      : UTF-8
    Codec ID                    : S_TEXT/UTF8
    Codec ID/Info               : UTF-8 Plain Text
    Duration                    : 1 h 27 min
    Bit rate                    : 33 b/s
    Count of elements           : 793
    Stream size                 : 21.5 KiB (0%)
    Title                       : Español-SRT [CinemaniaHDD]
    Language                    : Spanish
    Default                     : No
    Forced                      : No

    Menu
    00:00:00.000                : :Chapter 01
    00:06:34.060                : :Chapter 02
    00:11:54.213                : :Chapter 03
    00:15:15.331                : :Chapter 04
    00:19:09.273                : :Chapter 05
    00:25:47.588                : :Chapter 06
    00:28:22.618                : :Chapter 07
    00:35:01.516                : :Chapter 08
    00:43:24.018                : :Chapter 09
    00:51:51.066                : :Chapter 10
    01:00:00.305                : :Chapter 11
    01:03:59.335                : :Chapter 12
    01:11:04.760                : :Chapter 13
    01:14:01.103                : :Chapter 14
    01:20:02.131                : :Chapter 15
    01:25:29.207                : :Chapter 16

  • Peso: 17.2 GiB

Sinopsis

Descargar Ghost Rider: Espíritu de venganza (2011) REMUX 1080p Latino. Nueva adaptación del cómic «El motorista fantasma». Con el fin de controlar sus deseos de venganza, Johnny Blaze (Nicolas Cage), que ve sus poderes como una maldición, vive apartado del mundo y sin relacionarse con nadie, pero acaba siendo localizado por el monje Moreau, que necesita su ayuda para buscar a Nadya y a su hijo Danny antes de que los encuentre Roarke, un viejo conocido de Blaze.

Ficha técnica

Video trailer de la película

Enlaces de descarga

Rip de Bluray

Descargar Ghost Rider: Espíritu de venganza (2011) REMUX 1080p Latino




Aportes de DPeliculasHDmega la pass es:dpeliculashdmega.org Aportes de CinemaniaHD la pass es:cinemaniahdd.com Aportes recientes:cinemaniahdd.net
Guardado en : Acción , Fantasía , Remux , Suspenso

Películas relacionadas

  • Cómo robar un millón (1966) REMUX 1080p Latino-CMHDD

    Cómo robar un millón (1966) REMUX 1080p Latino-CMHDD

    1966
    Cómo robar un millón (1966) REMUX 1080p Latino-CMHDD

    2h 3m 1966

    Descargar Cómo robar un millón (1966) REMUX 1080p Latino-CMHDD. El padre de Nicole, un legendario coleccionista...

    Director: William Wyler

    Género: Comedia

    Actores: Roger Tréville

  • Milagros Inesperados (1999) 1080p Latino-CMHDD

    Milagros Inesperados (1999) 1080p Latino-CMHDD

    1999
    Milagros Inesperados (1999) 1080p Latino-CMHDD

    3h 9m 1999

    Descargar Milagros Inesperados (1999) 1080p Latino-CMHDD. En el sur de los Estados Unidos, en plena Depresión,...

    Director: Susan Malerstein

    Género: Crimen

    Actores: William Sadler

  • Milagros Inesperados (1999) REMUX 1080p Latino-CMHDD

    Milagros Inesperados (1999) REMUX 1080p Latino-CMHDD

    1999
    Milagros Inesperados (1999) REMUX 1080p Latino-CMHDD

    3h 9m 1999

    Descargar Milagros Inesperados (1999) REMUX 1080p Latino-CMHDD. En el sur de los Estados Unidos, en plena...

    Director: Susan Malerstein

    Género: Crimen

    Actores: William Sadler

  • Wanted Man (2024) HD 1080p Latino

    Wanted Man (2024) HD 1080p Latino

    2024
    Wanted Man (2024) HD 1080p Latino

    1h 25m 2024

    Descargar Wanted Man (2024) HD 1080p Latino. Sigue a un oficial de policía que debe recuperar a un testigo...

    Director: Kevin Leslie

    Género: Acción

    Actores: Xzavier Estrada

descargar Ghost Rider: Espíritu de venganza (2011) REMUX 1080p Latino Full 1080p 1080p gratis, Ghost Rider: Espíritu de venganza (2011) REMUX 1080p Latino Full 1080p mega 1 link, Ghost Rider: Espíritu de venganza (2011) REMUX 1080p Latino Full 1080p pelicula completa, descargar Ghost Rider: Espíritu de venganza (2011) REMUX 1080p Latino Full 1080p gratis en mega.

Ghost Rider: Espíritu de venganza (2011) REMUX 1080p Latino pelicula full hd, Ghost Rider: Espíritu de venganza (2011) REMUX 1080p Latino mega latino, Ghost Rider: Espíritu de venganza (2011) REMUX 1080p Latino 4k latino, Ghost Rider: Espíritu de venganza (2011) REMUX 1080p Latino pelicula completa, Ghost Rider: Espíritu de venganza (2011) REMUX 1080p Latino descargar gratis, descargar Ghost Rider: Espíritu de venganza (2011) REMUX 1080p Latino pelicula latino, Ghost Rider: Espíritu de venganza (2011) REMUX 1080p Latino 1 link mega, Ghost Rider: Espíritu de venganza (2011) REMUX 1080p Latino 1 link google drive, Ghost Rider: Espíritu de venganza (2011) REMUX 1080p Latino hd 1080p latino.
Comentarios 0