×

¿Problemas para descargar con Mozilla, EDGE? Deshabilita la opción "Abrir vinculos en una pestaña nueva" tal como lo muestra ésta imagen.

Ghost Rider: Espíritu de venganza (2011) 1080p Latino

298 vistas

Información de Ghost Rider: Espíritu de venganza (2011) 1080p Latino

Datos de la película

  • Calidad: 1080p
  • Audio: Español Latino AC3 5.1 BLURAY - Ingles AC3 5.1 BLURAY
  • Subtitulos: Español Latino SRT - Ingles SRT
  • Resolución: 1920x800p
  • Formato: MKV
  • Codec: H.264
  • Encoder: CinefiloCool
  • Mediainfo: Clic para Mostrar Datos Ver
  • Ghost Rider Espiritu De Venganza (2011) 1080p Latino-CMHDD.mkv
    Format                      : Matroska
    Format version              : Version 4
    File size                   : 4.00 GiB
    Duration                    : 1 h 35 min
    Overall bit rate            : 5 998 kb/s
    Movie name                  : Ghost Rider Spirit of Vengeance (2011) CinemaniaHDD.Net
    Encoded date                : UTC 2021-04-01 16:29:29
    Writing application         : mkvmerge v51.0.0 ('I Wish') 64-bit
    Writing library             : libebml v1.4.0 + libmatroska v1.6.2
    Attachments                 : CINEMANIAHD.png

    Video
    ID                          : 1
    Format                      : AVC
    Format/Info                 : Advanced Video Codec
    Format profile              : High@L4.1
    Format settings             : CABAC / 5 Ref Frames
    Format settings, CABAC      : Yes
    Format settings, Reference  : 5 frames
    Codec ID                    : V_MPEG4/ISO/AVC
    Duration                    : 1 h 35 min
    Bit rate                    : 5 100 kb/s
    Width                       : 1 920 pixels
    Height                      : 800 pixels
    Display aspect ratio        : 2.40:1
    Frame rate mode             : Constant
    Frame rate                  : 23.976 (24000/1001) FPS
    Color space                 : YUV
    Chroma subsampling          : 4:2:0
    Bit depth                   : 8 bits
    Scan type                   : Progressive
    Bits/(Pixel*Frame)          : 0.138
    Stream size                 : 3.40 GiB (85%)
    Title                       : HD1080p [CinemaniaHDD]
    Writing library             : x264 core 157 r2935 545de2f
    Encoding settings           : cabac=1 / ref=5 / deblock=1:-2:-2 / analyse=0x3:0x133 / me=umh / subme=9 / psy=1 / psy_rd=1.00:0.25 / mixed_ref=1 / me_range=16 / chroma_me=1 / trellis=2 / 8x8dct=1 / cqm=0 / deadzone=6,6 / fast_pskip=1 / chroma_qp_offset=-4 / threads=24 / lookahead_threads=2 / sliced_threads=0 / nr=0 / decimate=0 / interlaced=0 / bluray_compat=0 / constrained_intra=0 / bframes=3 / b_pyramid=2 / b_adapt=2 / b_bias=0 / direct=3 / weightb=1 / open_gop=0 / weightp=2 / keyint=240 / keyint_min=24 / scenecut=40 / intra_refresh=0 / rc_lookahead=60 / rc=crf / mbtree=1 / crf=22.0 / qcomp=0.80 / qpmin=0 / qpmax=69 / qpstep=4 / vbv_maxrate=62500 / vbv_bufsize=78125 / crf_max=0.0 / nal_hrd=none / filler=0 / ip_ratio=1.10 / aq=1:0.50
    Default                     : Yes
    Forced                      : Yes
    Color range                 : Limited
    Color primaries             : BT.709
    Transfer characteristics    : BT.709
    Matrix coefficients         : BT.709

    Audio #1
    ID                          : 2
    Format                      : AC-3
    Format/Info                 : Audio Coding 3
    Commercial name             : Dolby Digital
    Codec ID                    : A_AC3
    Duration                    : 1 h 35 min
    Bit rate mode               : Constant
    Bit rate                    : 448 kb/s
    Channel(s)                  : 6 channels
    Channel layout              : L R C LFE Ls Rs
    Sampling rate               : 48.0 kHz
    Frame rate                  : 31.250 FPS (1536 SPF)
    Compression mode            : Lossy
    Delay relative to video     : -5 ms
    Stream size                 : 306 MiB (7%)
    Title                       : Español Latino [CinemaniaHDD]
    Language                    : Spanish
    Service kind                : Complete Main
    Default                     : Yes
    Forced                      : Yes

    Audio #2
    ID                          : 3
    Format                      : AC-3
    Format/Info                 : Audio Coding 3
    Commercial name             : Dolby Digital
    Codec ID                    : A_AC3
    Duration                    : 1 h 35 min
    Bit rate mode               : Constant
    Bit rate                    : 448 kb/s
    Channel(s)                  : 6 channels
    Channel layout              : L R C LFE Ls Rs
    Sampling rate               : 48.0 kHz
    Frame rate                  : 31.250 FPS (1536 SPF)
    Compression mode            : Lossy
    Delay relative to video     : -5 ms
    Stream size                 : 306 MiB (7%)
    Title                       : Ingles [CinemaniaHDD]
    Language                    : English
    Service kind                : Complete Main
    Default                     : No
    Forced                      : No

    Text #1
    ID                          : 4
    Format                      : UTF-8
    Codec ID                    : S_TEXT/UTF8
    Codec ID/Info               : UTF-8 Plain Text
    Duration                    : 1 h 5 min
    Bit rate                    : 0 b/s
    Count of elements           : 3
    Stream size                 : 81.0 Bytes (0%)
    Title                       : Forzados-SRT [CinemaniaHDD]
    Language                    : Spanish
    Default                     : Yes
    Forced                      : Yes

    Text #2
    ID                          : 5
    Format                      : UTF-8
    Codec ID                    : S_TEXT/UTF8
    Codec ID/Info               : UTF-8 Plain Text
    Duration                    : 1 h 27 min
    Bit rate                    : 33 b/s
    Count of elements           : 793
    Stream size                 : 21.5 KiB (0%)
    Title                       : Español-SRT [CinemaniaHDD]
    Language                    : Spanish
    Default                     : No
    Forced                      : No

    Text #3
    ID                          : 6
    Format                      : UTF-8
    Codec ID                    : S_TEXT/UTF8
    Codec ID/Info               : UTF-8 Plain Text
    Duration                    : 1 h 27 min
    Bit rate                    : 33 b/s
    Count of elements           : 854
    Stream size                 : 21.2 KiB (0%)
    Title                       : Ingles-SRT [CinemaniaHDD]
    Language                    : English
    Default                     : No
    Forced                      : No

    Menu
    00:00:00.000                : :Chapter 01
    00:06:34.060                : :Chapter 02
    00:11:54.213                : :Chapter 03
    00:15:15.331                : :Chapter 04
    00:19:09.273                : :Chapter 05
    00:25:47.588                : :Chapter 06
    00:28:22.618                : :Chapter 07
    00:35:01.516                : :Chapter 08
    00:43:24.018                : :Chapter 09
    00:51:51.066                : :Chapter 10
    01:00:00.305                : :Chapter 11
    01:03:59.335                : :Chapter 12
    01:11:04.760                : :Chapter 13
    01:14:01.103                : :Chapter 14
    01:20:02.131                : :Chapter 15
    01:25:29.207                : :Chapter 16

  • Peso: 4.00 GiB

Sinopsis

Descargar Ghost Rider: Espíritu de venganza (2011) 1080p Latino. Nueva adaptación del cómic «El motorista fantasma». Con el fin de controlar sus deseos de venganza, Johnny Blaze (Nicolas Cage), que ve sus poderes como una maldición, vive apartado del mundo y sin relacionarse con nadie, pero acaba siendo localizado por el monje Moreau, que necesita su ayuda para buscar a Nadya y a su hijo Danny antes de que los encuentre Roarke, un viejo conocido de Blaze.

Ficha técnica

Video trailer de la película

Enlaces de descarga

Rip de Bluray

Descargar Ghost Rider: Espíritu de venganza (2011) 1080p Latino




Aportes de DPeliculasHDmega la pass es:dpeliculashdmega.org Aportes de CinemaniaHD la pass es:cinemaniahdd.com
Guardado en : Acción , Fantasía , HD 1080p , Suspenso

Películas relacionadas

descargar Ghost Rider: Espíritu de venganza (2011) 1080p Latino 1080p 1080p gratis, Ghost Rider: Espíritu de venganza (2011) 1080p Latino 1080p mega 1 link, Ghost Rider: Espíritu de venganza (2011) 1080p Latino 1080p pelicula completa, descargar Ghost Rider: Espíritu de venganza (2011) 1080p Latino 1080p gratis en mega.

Ghost Rider: Espíritu de venganza (2011) 1080p Latino pelicula full hd, Ghost Rider: Espíritu de venganza (2011) 1080p Latino mega latino, Ghost Rider: Espíritu de venganza (2011) 1080p Latino 4k latino, Ghost Rider: Espíritu de venganza (2011) 1080p Latino pelicula completa, Ghost Rider: Espíritu de venganza (2011) 1080p Latino descargar gratis, descargar Ghost Rider: Espíritu de venganza (2011) 1080p Latino pelicula latino, Ghost Rider: Espíritu de venganza (2011) 1080p Latino 1 link mega, Ghost Rider: Espíritu de venganza (2011) 1080p Latino 1 link google drive, Ghost Rider: Espíritu de venganza (2011) 1080p Latino hd 1080p latino.
Comentarios 0