×

¿Problemas para descargar con Mozilla, EDGE? Deshabilita la opción "Abrir vinculos en una pestaña nueva" tal como lo muestra ésta imagen.

Ghost Rider: El Vengador Fantasma (2007) EXTENDED REMUX 1080p Latino

424 vistas

Información de Ghost Rider: El Vengador Fantasma (2007) EXTENDED REMUX 1080p Latino

Datos de la película

  • Calidad: Full 1080p
  • Audio: Español Latino AC3 5.1 BLURAY - Ingles DTS 5.1 BLURAY
  • Subtitulos: Español Latino PGS - Ingles PGS
  • Resolución: 1920x1080p
  • Formato: MKV
  • Codec: H.264
  • Encoder: CinefiloCool
  • Mediainfo: Clic para Mostrar Datos Ver
  • Ghost Rider El Vengador Fantasma (2007) EXTENDED REMUX 1080p Latino-CMHDD.mkv
    Format                      : Matroska
    Format version              : Version 4
    File size                   : 25.6 GiB
    Duration                    : 2 h 3 min
    Overall bit rate mode       : Variable
    Overall bit rate            : 29.7 Mb/s
    Movie name                  : Ghost Rider (2007) CinemaniaHDD.Net
    Encoded date                : UTC 2021-01-04 03:54:20
    Writing application         : mkvmerge v51.0.0 ('I Wish') 64-bit
    Writing library             : libebml v1.4.0 + libmatroska v1.6.2
    Attachments                 : CINEMANIAHD.png

    Video
    ID                          : 1
    Format                      : AVC
    Format/Info                 : Advanced Video Codec
    Format profile              : High@L4.1
    Format settings             : CABAC / 2 Ref Frames
    Format settings, CABAC      : Yes
    Format settings, Reference  : 2 frames
    Codec ID                    : V_MPEG4/ISO/AVC
    Duration                    : 2 h 3 min
    Bit rate mode               : Variable
    Bit rate                    : 26.7 Mb/s
    Width                       : 1 920 pixels
    Height                      : 1 080 pixels
    Display aspect ratio        : 16:9
    Frame rate mode             : Constant
    Frame rate                  : 23.976 (24000/1001) FPS
    Color space                 : YUV
    Chroma subsampling          : 4:2:0
    Bit depth                   : 8 bits
    Scan type                   : Progressive
    Bits/(Pixel*Frame)          : 0.537
    Stream size                 : 23.0 GiB (90%)
    Title                       : REMUX HD1080p [CinemaniaHDD]
    Language                    : English
    Default                     : Yes
    Forced                      : No

    Audio #1
    ID                          : 2
    Format                      : AC-3
    Format/Info                 : Audio Coding 3
    Commercial name             : Dolby Digital
    Codec ID                    : A_AC3
    Duration                    : 2 h 3 min
    Bit rate mode               : Constant
    Bit rate                    : 640 kb/s
    Channel(s)                  : 6 channels
    Channel layout              : L R C LFE Ls Rs
    Sampling rate               : 48.0 kHz
    Frame rate                  : 31.250 FPS (1536 SPF)
    Compression mode            : Lossy
    Stream size                 : 565 MiB (2%)
    Title                       : Español Latino [CinemaniaHDD]
    Language                    : Spanish
    Service kind                : Complete Main
    Default                     : Yes
    Forced                      : No

    Audio #2
    ID                          : 3
    Format                      : DTS XLL
    Format/Info                 : Digital Theater Systems
    Commercial name             : DTS-HD Master Audio
    Codec ID                    : A_DTS
    Duration                    : 2 h 3 min
    Bit rate mode               : Variable
    Bit rate                    : 2 315 kb/s
    Channel(s)                  : 6 channels
    Channel layout              : C L R Ls Rs LFE
    Sampling rate               : 48.0 kHz
    Frame rate                  : 93.750 FPS (512 SPF)
    Bit depth                   : 16 bits
    Compression mode            : Lossless
    Stream size                 : 2.00 GiB (8%)
    Title                       : Ingles [CinemaniaHDD]
    Language                    : English
    Default                     : No
    Forced                      : No

    Text #1
    ID                          : 4
    Format                      : PGS
    Muxing mode                 : zlib
    Codec ID                    : S_HDMV/PGS
    Codec ID/Info               : Picture based subtitle format used on BDs/HD-DVDs
    Duration                    : 1 h 54 min
    Bit rate                    : 22.0 kb/s
    Count of elements           : 2138
    Stream size                 : 18.1 MiB (0%)
    Title                       : Español-PGS [CinemaniaHDD]
    Language                    : Spanish
    Default                     : No
    Forced                      : No

    Text #2
    ID                          : 5
    Format                      : PGS
    Muxing mode                 : zlib
    Codec ID                    : S_HDMV/PGS
    Codec ID/Info               : Picture based subtitle format used on BDs/HD-DVDs
    Duration                    : 1 h 54 min
    Bit rate                    : 23.0 kb/s
    Count of elements           : 2143
    Stream size                 : 19.0 MiB (0%)
    Title                       : Ingles-PGS [CinemaniaHDD]
    Language                    : Spanish
    Default                     : No
    Forced                      : No

    Text #3
    ID                          : 6
    Format                      : UTF-8
    Codec ID                    : S_TEXT/UTF8
    Codec ID/Info               : UTF-8 Plain Text
    Duration                    : 1 h 48 min
    Bit rate                    : 0 b/s
    Count of elements           : 9
    Stream size                 : 190 Bytes (0%)
    Title                       : Forzados-SRT [CinemaniaHDD]
    Language                    : Spanish
    Default                     : Yes
    Forced                      : No

    Text #4
    ID                          : 7
    Format                      : UTF-8
    Codec ID                    : S_TEXT/UTF8
    Codec ID/Info               : UTF-8 Plain Text
    Duration                    : 1 h 54 min
    Bit rate                    : 38 b/s
    Count of elements           : 1068
    Stream size                 : 32.7 KiB (0%)
    Title                       : Español-SRT [CinemaniaHDD]
    Language                    : Spanish
    Default                     : No
    Forced                      : No

    Menu
    00:00:00.000                : en:Ghost Legend
    00:09:21.394                : en:Changing Paths
    00:18:28.691                : en:Mr. Invincible
    00:21:21.572                : en:Second Chances
    00:28:40.135                : en:An Old Friend
    00:35:54.110                : en:Only Johnny Blaze
    00:42:02.103                : en:Always There
    00:47:37.646                : en:Rider's Work
    00:56:00.607                : en:Bounty Hunter
    01:05:50.029                : en:Sparking Flames
    01:12:49.198                : en:Caged Fire
    01:18:28.287                : en:In Pursuit
    01:25:15.235                : en:Rider Tales
    01:37:06.112                : en:Last Ride
    01:45:45.839                : en:Ready For Battle
    01:49:38.781                : en:A Deal's A Deal

  • Peso: 25.6 GiB

Sinopsis

Descargar Ghost Rider: El Vengador Fantasma (2007) EXTENDED REMUX 1080p Latino. Adaptación del famoso cómic de la Marvel. Hace mucho tiempo, la superestrella de las acrobacias en moto, Johnny Blaze (Nicolas Cage) hizo un trato con el diablo para proteger a los que más quería: su padre y su novia de la juventud, Roxanne (Eva Mendes). Ahora, el diablo ha venido a cobrar su deuda. De día, Johnny es un motero acróbata temerario… pero de noche, en presencia del diablo, se convierte en Ghost Rider, un cazarecompensas de demonios deshonestos. Obligado a hacer la voluntad del diablo, Johnny está decidido a enfrentarse a su destino y utilizar su maldición y sus poderes para defender al inocente…

Ficha técnica

Video trailer de la película

Enlaces de descarga

Rip de Bluray

Descargar Ghost Rider: El Vengador Fantasma (2007) EXTENDED REMUX 1080p Latino




Aportes de DPeliculasHDmega la pass es:dpeliculashdmega.org Aportes de CinemaniaHD la pass es:cinemaniahdd.com
Guardado en : Acción , Fantasía , Remux , Suspenso

Películas relacionadas

descargar Ghost Rider: El Vengador Fantasma (2007) EXTENDED REMUX 1080p Latino Full 1080p 1080p gratis, Ghost Rider: El Vengador Fantasma (2007) EXTENDED REMUX 1080p Latino Full 1080p mega 1 link, Ghost Rider: El Vengador Fantasma (2007) EXTENDED REMUX 1080p Latino Full 1080p pelicula completa, descargar Ghost Rider: El Vengador Fantasma (2007) EXTENDED REMUX 1080p Latino Full 1080p gratis en mega.

Ghost Rider: El Vengador Fantasma (2007) EXTENDED REMUX 1080p Latino pelicula full hd, Ghost Rider: El Vengador Fantasma (2007) EXTENDED REMUX 1080p Latino mega latino, Ghost Rider: El Vengador Fantasma (2007) EXTENDED REMUX 1080p Latino 4k latino, Ghost Rider: El Vengador Fantasma (2007) EXTENDED REMUX 1080p Latino pelicula completa, Ghost Rider: El Vengador Fantasma (2007) EXTENDED REMUX 1080p Latino descargar gratis, descargar Ghost Rider: El Vengador Fantasma (2007) EXTENDED REMUX 1080p Latino pelicula latino, Ghost Rider: El Vengador Fantasma (2007) EXTENDED REMUX 1080p Latino 1 link mega, Ghost Rider: El Vengador Fantasma (2007) EXTENDED REMUX 1080p Latino 1 link google drive, Ghost Rider: El Vengador Fantasma (2007) EXTENDED REMUX 1080p Latino hd 1080p latino.
Comentarios 0