×

¿Problemas para descargar con Mozilla, EDGE? Deshabilita la opción "Abrir vinculos en una pestaña nueva" tal como lo muestra ésta imagen.

Ghost Rider: El Vengador Fantasma (2007) EXTENDED Full HD 1080p Latino

485 vistas

Información de Ghost Rider: El Vengador Fantasma (2007) EXTENDED Full HD 1080p Latino

Datos de la película

  • Calidad: Full 1080p
  • Audio: Español Latino AC3 5.1 BLURAY - Ingles DTS 5.1 BLURAY
  • Subtitulos: Español Latino PGS - Ingles PGS
  • Resolución: 1920x1080p
  • Formato: MKV
  • Codec: H.264
  • Encoder: CinefiloCool
  • Mediainfo: Clic para Mostrar Datos Ver
  • Ghost Rider El Vengador Fantasma (2007) EXTENDED Full HD 1080p Latino-CMHDD.mkv
    Format                      : Matroska
    Format version              : Version 4
    File size                   : 7.12 GiB
    Duration                    : 2 h 3 min
    Overall bit rate            : 8 255 kb/s
    Movie name                  : Ghost Rider (2007) CinemaniaHDD.Net
    Encoded date                : UTC 2021-04-01 15:44:47
    Writing application         : mkvmerge v51.0.0 ('I Wish') 64-bit
    Writing library             : libebml v1.4.0 + libmatroska v1.6.2
    Attachments                 : CINEMANIAHD.png

    Video
    ID                          : 1
    Format                      : AVC
    Format/Info                 : Advanced Video Codec
    Format profile              : High@L4.1
    Format settings             : CABAC / 4 Ref Frames
    Format settings, CABAC      : Yes
    Format settings, Reference  : 4 frames
    Codec ID                    : V_MPEG4/ISO/AVC
    Duration                    : 2 h 3 min
    Bit rate                    : 6 084 kb/s
    Width                       : 1 920 pixels
    Height                      : 1 080 pixels
    Display aspect ratio        : 16:9
    Frame rate mode             : Constant
    Frame rate                  : 23.976 (24000/1001) FPS
    Color space                 : YUV
    Chroma subsampling          : 4:2:0
    Bit depth                   : 8 bits
    Scan type                   : Progressive
    Bits/(Pixel*Frame)          : 0.122
    Stream size                 : 5.25 GiB (74%)
    Title                       : Full HD1080p [CinemaniaHDD]
    Writing library             : x264 core 157 r2935 545de2f
    Encoding settings           : cabac=1 / ref=4 / deblock=1:0:0 / analyse=0x3:0x133 / me=tesa / subme=11 / psy=1 / psy_rd=1.00:0.00 / mixed_ref=1 / me_range=24 / chroma_me=1 / trellis=2 / 8x8dct=1 / cqm=0 / deadzone=21,11 / fast_pskip=0 / chroma_qp_offset=-2 / threads=24 / lookahead_threads=6 / sliced_threads=0 / nr=0 / decimate=1 / interlaced=0 / bluray_compat=0 / constrained_intra=0 / bframes=16 / b_pyramid=2 / b_adapt=2 / b_bias=0 / direct=3 / weightb=1 / open_gop=0 / weightp=2 / keyint=240 / keyint_min=24 / scenecut=40 / intra_refresh=0 / rc_lookahead=60 / rc=crf / mbtree=1 / crf=19.0 / qcomp=0.60 / qpmin=0 / qpmax=69 / qpstep=4 / vbv_maxrate=62500 / vbv_bufsize=78125 / crf_max=0.0 / nal_hrd=none / filler=0 / ip_ratio=1.40 / aq=1:1.00
    Default                     : Yes
    Forced                      : Yes
    Color range                 : Limited
    Color primaries             : BT.709
    Transfer characteristics    : BT.709
    Matrix coefficients         : BT.709

    Audio #1
    ID                          : 2
    Format                      : AC-3
    Format/Info                 : Audio Coding 3
    Commercial name             : Dolby Digital
    Codec ID                    : A_AC3
    Duration                    : 2 h 3 min
    Bit rate mode               : Constant
    Bit rate                    : 640 kb/s
    Channel(s)                  : 6 channels
    Channel layout              : L R C LFE Ls Rs
    Sampling rate               : 48.0 kHz
    Frame rate                  : 31.250 FPS (1536 SPF)
    Compression mode            : Lossy
    Stream size                 : 565 MiB (8%)
    Title                       : Español Latino [CinemaniaHDD]
    Language                    : Spanish
    Service kind                : Complete Main
    Default                     : Yes
    Forced                      : Yes

    Audio #2
    ID                          : 3
    Format                      : DTS
    Format/Info                 : Digital Theater Systems
    Codec ID                    : A_DTS
    Duration                    : 2 h 3 min
    Bit rate mode               : Constant
    Bit rate                    : 1 509 kb/s
    Channel(s)                  : 6 channels
    Channel layout              : C L R Ls Rs LFE
    Sampling rate               : 48.0 kHz
    Frame rate                  : 93.750 FPS (512 SPF)
    Bit depth                   : 24 bits
    Compression mode            : Lossy
    Stream size                 : 1.30 GiB (18%)
    Title                       : Ingles [CinemaniaHDD]
    Language                    : English
    Default                     : No
    Forced                      : No

    Text #1
    ID                          : 4
    Format                      : PGS
    Muxing mode                 : zlib
    Codec ID                    : S_HDMV/PGS
    Codec ID/Info               : Picture based subtitle format used on BDs/HD-DVDs
    Duration                    : 1 h 54 min
    Bit rate                    : 22.0 kb/s
    Count of elements           : 2138
    Stream size                 : 18.1 MiB (0%)
    Title                       : Español-PGS [CinemaniaHDD]
    Language                    : Spanish
    Default                     : No
    Forced                      : No

    Text #2
    ID                          : 5
    Format                      : PGS
    Muxing mode                 : zlib
    Codec ID                    : S_HDMV/PGS
    Codec ID/Info               : Picture based subtitle format used on BDs/HD-DVDs
    Duration                    : 1 h 54 min
    Bit rate                    : 23.0 kb/s
    Count of elements           : 2143
    Stream size                 : 19.0 MiB (0%)
    Title                       : Ingles-PGS [CinemaniaHDD]
    Language                    : Spanish
    Default                     : No
    Forced                      : No

    Text #3
    ID                          : 6
    Format                      : UTF-8
    Codec ID                    : S_TEXT/UTF8
    Codec ID/Info               : UTF-8 Plain Text
    Duration                    : 1 h 48 min
    Bit rate                    : 0 b/s
    Count of elements           : 9
    Stream size                 : 190 Bytes (0%)
    Title                       : Forzados-SRT [CinemaniaHDD]
    Language                    : Spanish
    Default                     : Yes
    Forced                      : Yes

    Text #4
    ID                          : 7
    Format                      : UTF-8
    Codec ID                    : S_TEXT/UTF8
    Codec ID/Info               : UTF-8 Plain Text
    Duration                    : 1 h 54 min
    Bit rate                    : 38 b/s
    Count of elements           : 1068
    Stream size                 : 32.7 KiB (0%)
    Title                       : Español-SRT [CinemaniaHDD]
    Language                    : Spanish
    Default                     : No
    Forced                      : No

    Menu
    00:00:00.000                : en:Ghost Legend
    00:09:21.394                : en:Changing Paths
    00:18:28.691                : en:Mr. Invincible
    00:21:21.572                : en:Second Chances
    00:28:40.135                : en:An Old Friend
    00:35:54.110                : en:Only Johnny Blaze
    00:42:02.103                : en:Always There
    00:47:37.646                : en:Rider's Work
    00:56:00.607                : en:Bounty Hunter
    01:05:50.029                : en:Sparking Flames
    01:12:49.198                : en:Caged Fire
    01:18:28.287                : en:In Pursuit
    01:25:15.235                : en:Rider Tales
    01:37:06.112                : en:Last Ride
    01:45:45.839                : en:Ready For Battle
    01:49:38.781                : en:A Deal's A Deal

  • Peso: 7.12 GiB

Sinopsis

Descargar Ghost Rider: El Vengador Fantasma (2007) EXTENDED Full HD 1080p Latino. Adaptación del famoso cómic de la Marvel. Hace mucho tiempo, la superestrella de las acrobacias en moto, Johnny Blaze (Nicolas Cage) hizo un trato con el diablo para proteger a los que más quería: su padre y su novia de la juventud, Roxanne (Eva Mendes). Ahora, el diablo ha venido a cobrar su deuda. De día, Johnny es un motero acróbata temerario… pero de noche, en presencia del diablo, se convierte en Ghost Rider, un cazarecompensas de demonios deshonestos. Obligado a hacer la voluntad del diablo, Johnny está decidido a enfrentarse a su destino y utilizar su maldición y sus poderes para defender al inocente…

Ficha técnica

Video trailer de la película

Enlaces de descarga

Rip de Bluray

Descargar Ghost Rider: El Vengador Fantasma (2007) EXTENDED Full HD 1080p Latino




Aportes de DPeliculasHDmega la pass es:dpeliculashdmega.org Aportes de CinemaniaHD la pass es:cinemaniahdd.com

Películas relacionadas

  • Resurrección (2022) AMZN WEB-DL 1080p Latino

    Resurrección (2022) AMZN WEB-DL 1080p Latino

    2022
    Resurrección (2022) AMZN WEB-DL 1080p Latino

    1h 43m 2022

    Descargar Resurrección (2022) AMZN Web-DL 1080p Latino. La vida cuidadosamente construida de una mujer...

    Director: Michael Kefeyalew

    Género: Drama

    Actores: Zarra Kaahn

  • El Lobo Y El Leon (2021) PLACEBO Full HD 1080p Latino

    El Lobo Y El Leon (2021) PLACEBO Full HD 1080p Latino

    2021
    El Lobo Y El Leon (2021) PLACEBO Full HD 1080p Latino

    1h 39m 2021

    Descargar El Lobo Y El Leon (2021) PLACEBO Full HD 1080p Latino. A la muerte de su abuelo, Alma, un joven...

    Director: Gilles de Maistre

    Género: Aventura

    Actores: Victor Cornfoot

  • Plan De Estudios (2022) NF WEB-DL 1080p Latino

    Plan De Estudios (2022) NF WEB-DL 1080p Latino

    2022
    Plan De Estudios (2022) NF WEB-DL 1080p Latino

    1h 41m 2022

    Un expolicía empieza a trabajar en el instituto en el que su difunto mejor amigo daba clase para enfrentarse...

    Director: Daniel Markowicz

    Género: Crimen

    Actores: Zuzanna Galewicz

  • La Mujer Rey (2022) WEB-DL 1080p Latino

    La Mujer Rey (2022) WEB-DL 1080p Latino

    2022
    La Mujer Rey (2022) WEB-DL 1080p Latino

    2h 15m 2022

    Descargar La Mujer Rey (2022) WEB-DL 1080p Latino. Una epopeya histórica inspirada en los hechos reales...

    Director: Gina Prince-Bythewood

    Género: Acción

    Actores: Wanda Banda

  • Black Adam (2022) WEB-DL 4K UHD HDR Latino

    Black Adam (2022) WEB-DL 4K UHD HDR Latino

    2022
    Black Adam (2022) WEB-DL 4K UHD HDR Latino

    2h 4m 2022

    Descargar Black Adam (2022) WEB-DL 4K UHD HDR Latino. Casi 5.000 años después de haber sido dotado...

    Director: Jaume Collet-Serra

    Género: 4K HDR

    Actores: Yssa Mei Panganiban

descargar Ghost Rider: El Vengador Fantasma (2007) EXTENDED Full HD 1080p Latino Full 1080p 1080p gratis, Ghost Rider: El Vengador Fantasma (2007) EXTENDED Full HD 1080p Latino Full 1080p mega 1 link, Ghost Rider: El Vengador Fantasma (2007) EXTENDED Full HD 1080p Latino Full 1080p pelicula completa, descargar Ghost Rider: El Vengador Fantasma (2007) EXTENDED Full HD 1080p Latino Full 1080p gratis en mega.

Ghost Rider: El Vengador Fantasma (2007) EXTENDED Full HD 1080p Latino pelicula full hd, Ghost Rider: El Vengador Fantasma (2007) EXTENDED Full HD 1080p Latino mega latino, Ghost Rider: El Vengador Fantasma (2007) EXTENDED Full HD 1080p Latino 4k latino, Ghost Rider: El Vengador Fantasma (2007) EXTENDED Full HD 1080p Latino pelicula completa, Ghost Rider: El Vengador Fantasma (2007) EXTENDED Full HD 1080p Latino descargar gratis, descargar Ghost Rider: El Vengador Fantasma (2007) EXTENDED Full HD 1080p Latino pelicula latino, Ghost Rider: El Vengador Fantasma (2007) EXTENDED Full HD 1080p Latino 1 link mega, Ghost Rider: El Vengador Fantasma (2007) EXTENDED Full HD 1080p Latino 1 link google drive, Ghost Rider: El Vengador Fantasma (2007) EXTENDED Full HD 1080p Latino hd 1080p latino.
Comentarios 0