×

¿Problemas para descargar con Mozilla, EDGE? Deshabilita la opción "Abrir vinculos en una pestaña nueva" tal como lo muestra ésta imagen.

Ghost la sombra del amor (1990) HD 1080p Latino – CMHDD

469 vistas

Información de Ghost la sombra del amor (1990) HD 1080p Latino – CMHDD

Datos de la película

  • Calidad: 1080p
  • Audio: Español Latino AC3 5.1 BLURAY - Ingles AC3 5.1 BLURAY
  • Subtitulos: Español Latino SRT
  • Resolución: 1920x1080p
  • Formato: MKV
  • Codec: H.264
  • Encoder: Dracarys
  • Mediainfo: Clic para Mostrar Datos Ver
  • Format                      : Matroska
    Format version              : Version 4
    File size                   : 4.20 GiB
    Duration                    : 2 h 6 min
    Overall bit rate            : 4 749 kb/s
    Movie name                  : Ghost la sombra del amor (1990) HD 1080p Latino - CMHDD
    Encoded date                : UTC 2020-06-16 03:25:15
    Writing application         : mkvmerge v46.0.0 ('No Deeper Escape') 64-bit
    Writing library             : libebml v1.3.10 + libmatroska v1.5.2

    Video
    ID                          : 1
    Format                      : AVC
    Format/Info                 : Advanced Video Codec
    Format profile              : High@L4.1
    Format settings             : CABAC / 4 Ref Frames
    Format settings, CABAC      : Yes
    Format settings, Reference  : 4 frames
    Codec ID                    : V_MPEG4/ISO/AVC
    Duration                    : 2 h 6 min
    Bit rate                    : 3 500 kb/s
    Width                       : 1 920 pixels
    Height                      : 1 080 pixels
    Display aspect ratio        : 16:9
    Frame rate mode             : Constant
    Frame rate                  : 23.976 (24000/1001) FPS
    Color space                 : YUV
    Chroma subsampling          : 4:2:0
    Bit depth                   : 8 bits
    Scan type                   : Progressive
    Bits/(Pixel*Frame)          : 0.070
    Stream size                 : 3.07 GiB (73%)
    Writing library             : x264 core 157 r2935 545de2f
    Encoding settings           : cabac=1 / ref=4 / deblock=1:0:0 / analyse=0x3:0x113 / me=hex / subme=8 / psy=1 / psy_rd=1.00:0.00 / mixed_ref=1 / me_range=16 / chroma_me=1 / trellis=2 / 8x8dct=1 / cqm=0 / deadzone=21,11 / fast_pskip=1 / chroma_qp_offset=-2 / threads=24 / lookahead_threads=4 / sliced_threads=0 / nr=0 / decimate=1 / interlaced=0 / bluray_compat=0 / constrained_intra=0 / bframes=3 / b_pyramid=2 / b_adapt=1 / b_bias=0 / direct=3 / weightb=1 / open_gop=0 / weightp=2 / keyint=240 / keyint_min=24 / scenecut=40 / intra_refresh=0 / rc_lookahead=50 / rc=abr / mbtree=1 / bitrate=3500 / ratetol=1.0 / qcomp=0.60 / qpmin=0 / qpmax=69 / qpstep=4 / vbv_maxrate=62500 / vbv_bufsize=78125 / nal_hrd=none / filler=0 / ip_ratio=1.40 / aq=1:1.00
    Default                     : Yes
    Forced                      : No
    Color range                 : Limited
    Color primaries             : BT.709
    Transfer characteristics    : BT.709
    Matrix coefficients         : BT.709

    Audio #1
    ID                          : 2
    Format                      : AC-3
    Format/Info                 : Audio Coding 3
    Commercial name             : Dolby Digital
    Codec ID                    : A_AC3
    Duration                    : 2 h 6 min
    Bit rate mode               : Constant
    Bit rate                    : 640 kb/s
    Channel(s)                  : 6 channels
    Channel layout              : L R C LFE Ls Rs
    Sampling rate               : 48.0 kHz
    Frame rate                  : 31.250 FPS (1536 SPF)
    Compression mode            : Lossy
    Stream size                 : 580 MiB (13%)
    Language                    : Spanish
    Service kind                : Complete Main
    Default                     : Yes
    Forced                      : No

    Audio #2
    ID                          : 3
    Format                      : AC-3
    Format/Info                 : Audio Coding 3
    Commercial name             : Dolby Digital
    Codec ID                    : A_AC3
    Duration                    : 2 h 6 min
    Bit rate mode               : Constant
    Bit rate                    : 640 kb/s
    Channel(s)                  : 6 channels
    Channel layout              : L R C LFE Ls Rs
    Sampling rate               : 48.0 kHz
    Frame rate                  : 31.250 FPS (1536 SPF)
    Compression mode            : Lossy
    Stream size                 : 580 MiB (13%)
    Language                    : English
    Service kind                : Complete Main
    Default                     : No
    Forced                      : No

    Text
    ID                          : 4
    Format                      : UTF-8
    Codec ID                    : S_TEXT/UTF8
    Codec ID/Info               : UTF-8 Plain Text
    Duration                    : 2 h 1 min
    Bit rate                    : 49 b/s
    Count of elements           : 1435
    Stream size                 : 44.2 KiB (0%)
    Language                    : Spanish
    Default                     : No
    Forced                      : No

    Menu
    00:00:00.000                : :Chapter 1
    00:11:08.126                : :Chapter 2
    00:17:18.037                : :Chapter 3
    00:32:06.591                : :Chapter 4
    00:37:42.761                : :Chapter 5
    00:47:04.530                : :Chapter 6
    01:12:23.756                : :Chapter 7
    01:18:01.719                : :Chapter 8
    01:22:16.807                : :Chapter 9
    01:34:30.957                : :Chapter 10
    01:38:54.095                : :Chapter 11
    01:44:26.677                : :Chapter 12
    01:49:09.501                : :Chapter 13
    01:52:13.936                : :Chapter 14
    01:57:40.387                : :Chapter 15
    02:02:14.828                : :Chapter 16

  • Peso: 4.20 GiB

Sinopsis

Una pareja de enamorados ve truncada su felicidad cuando él es asesinado por un ladrón. La necesidad de salvar la vida a la chica hace que él permanezca en la Tierra en forma de fantasma, e intente advertirla del peligro que corre. Su único medio de comunicación es una alocada vidente.

Ficha técnica

Video trailer de la película

Enlaces de descarga

Rip de Bluray

Descargar Ghost la sombra del amor (1990) HD 1080p Latino – CMHDD




Aportes de DPeliculasHDmega la pass es:dpeliculashdmega.org Aportes de CinemaniaHD la pass es:cinemaniahdd.com
Guardado en : Drama , Fantasía , HD 1080p , Misterio , Romance , Suspenso

Películas relacionadas

descargar Ghost la sombra del amor (1990) HD 1080p Latino – CMHDD 1080p 1080p gratis, Ghost la sombra del amor (1990) HD 1080p Latino – CMHDD 1080p mega 1 link, Ghost la sombra del amor (1990) HD 1080p Latino – CMHDD 1080p pelicula completa, descargar Ghost la sombra del amor (1990) HD 1080p Latino – CMHDD 1080p gratis en mega.

Ghost la sombra del amor (1990) HD 1080p Latino – CMHDD pelicula full hd, Ghost la sombra del amor (1990) HD 1080p Latino – CMHDD mega latino, Ghost la sombra del amor (1990) HD 1080p Latino – CMHDD 4k latino, Ghost la sombra del amor (1990) HD 1080p Latino – CMHDD pelicula completa, Ghost la sombra del amor (1990) HD 1080p Latino – CMHDD descargar gratis, descargar Ghost la sombra del amor (1990) HD 1080p Latino – CMHDD pelicula latino, Ghost la sombra del amor (1990) HD 1080p Latino – CMHDD 1 link mega, Ghost la sombra del amor (1990) HD 1080p Latino – CMHDD 1 link google drive, Ghost la sombra del amor (1990) HD 1080p Latino – CMHDD hd 1080p latino.
Comentarios 0