×

¿Problemas para descargar con Mozilla, EDGE? Deshabilita la opción "Abrir vinculos en una pestaña nueva" tal como lo muestra ésta imagen.

Ghost in the Shell vigilante del futuro (2017) REMUX 1080p Latino

1.657 vistas

Información de Ghost in the Shell vigilante del futuro (2017) REMUX 1080p Latino

Datos de la película

  • Calidad: Full 1080p
  • Audio: Español Latino AC3 5.1 BLURAY - Ingles AC3 5.1 BLURAY
  • Subtitulos: Español Latino SRT- FORZADOS SRT
  • Resolución: 1920x1080p
  • Formato: MKV
  • Codec: H.264
  • Encoder: Dracarys
  • Mediainfo: Clic para Mostrar Datos Ver
  • Format                      : Matroska
    Format version              : Version 4
    File size                   : 25.0 GiB
    Duration                    : 1 h 46 min
    Overall bit rate mode       : Variable
    Overall bit rate            : 33.5 Mb/s
    Movie name                  : CinemaniaHDD.net
    Encoded date                : UTC 2019-07-19 04:29:00
    Writing application         : mkvmerge v35.0.0 ('All The Love In The World') 64-bit
    Writing library             : libebml v1.3.9 + libmatroska v1.5.2

    Video
    ID                          : 1
    Format                      : AVC
    Format/Info                 : Advanced Video Codec
    Format profile              : High@L4.1
    Format settings             : CABAC / 4 Ref Frames
    Format settings, CABAC      : Yes
    Format settings, ReFrames   : 4 frames
    Codec ID                    : V_MPEG4/ISO/AVC
    Duration                    : 1 h 46 min
    Bit rate mode               : Variable
    Bit rate                    : 28.0 Mb/s
    Maximum bit rate            : 30.0 Mb/s
    Width                       : 1 920 pixels
    Height                      : 1 080 pixels
    Display aspect ratio        : 16:9
    Frame rate mode             : Constant
    Frame rate                  : 23.976 (24000/1001) FPS
    Color space                 : YUV
    Chroma subsampling          : 4:2:0
    Bit depth                   : 8 bits
    Scan type                   : Progressive
    Bits/(Pixel*Frame)          : 0.564
    Stream size                 : 20.9 GiB (84%)
    Language                    : English
    Default                     : Yes
    Forced                      : No

    Audio #1
    ID                          : 2
    Format                      : MLP FBA 16-ch
    Format/Info                 : Meridian Lossless Packing FBA with 16-channel presentation
    Commercial name             : Dolby TrueHD with Dolby Atmos
    Codec ID                    : A_TRUEHD
    Duration                    : 1 h 46 min
    Bit rate mode               : Variable
    Bit rate                    : 4 131 kb/s
    Maximum bit rate            : 7 710 kb/s
    Channel(s)                  : 8 channels
    Channel layout              : L R C LFE Ls Rs Lb Rb
    Sampling rate               : 48.0 kHz
    Frame rate                  : 1 200.000 FPS (40 SPF)
    Compression mode            : Lossless
    Stream size                 : 3.09 GiB (12%)
    Language                    : English
    Default                     : No
    Forced                      : No
    Number of dynamic objects   : 11
    Bed channel count           : 1 channel
    Bed channel configuration   : LFE

    Audio #2
    ID                          : 3
    Format                      : AC-3
    Format/Info                 : Audio Coding 3
    Commercial name             : Dolby Digital
    Codec ID                    : A_AC3
    Duration                    : 1 h 46 min
    Bit rate mode               : Constant
    Bit rate                    : 640 kb/s
    Channel(s)                  : 6 channels
    Channel layout              : L R C LFE Ls Rs
    Sampling rate               : 48.0 kHz
    Frame rate                  : 31.250 FPS (1536 SPF)
    Bit depth                   : 16 bits
    Compression mode            : Lossy
    Stream size                 : 490 MiB (2%)
    Language                    : Spanish
    Service kind                : Complete Main
    Default                     : Yes
    Forced                      : No

    Audio #3
    ID                          : 4
    Format                      : AC-3
    Format/Info                 : Audio Coding 3
    Commercial name             : Dolby Digital
    Codec ID                    : A_AC3
    Duration                    : 1 h 46 min
    Bit rate mode               : Constant
    Bit rate                    : 640 kb/s
    Channel(s)                  : 6 channels
    Channel layout              : L R C LFE Ls Rs
    Sampling rate               : 48.0 kHz
    Frame rate                  : 31.250 FPS (1536 SPF)
    Bit depth                   : 16 bits
    Compression mode            : Lossy
    Stream size                 : 490 MiB (2%)
    Language                    : English
    Service kind                : Complete Main
    Default                     : No
    Forced                      : No

    Text #1
    ID                          : 5
    Format                      : PGS
    Muxing mode                 : zlib
    Codec ID                    : S_HDMV/PGS
    Codec ID/Info               : Picture based subtitle format used on BDs/HD-DVDs
    Duration                    : 1 h 36 min
    Bit rate                    : 22.9 kb/s
    Count of elements           : 1810
    Stream size                 : 15.8 MiB (0%)
    Language                    : Spanish
    Default                     : No
    Forced                      : No

    Text #2
    ID                          : 6
    Format                      : UTF-8
    Codec ID                    : S_TEXT/UTF8
    Codec ID/Info               : UTF-8 Plain Text
    Duration                    : 1 h 36 min
    Bit rate                    : 37 b/s
    Count of elements           : 905
    Stream size                 : 26.2 KiB (0%)
    Language                    : Spanish
    Default                     : No
    Forced                      : No

    Text #3
    ID                          : 7
    Format                      : UTF-8
    Codec ID                    : S_TEXT/UTF8
    Codec ID/Info               : UTF-8 Plain Text
    Duration                    : 1 h 36 min
    Bit rate                    : 3 b/s
    Count of elements           : 72
    Stream size                 : 2.24 KiB (0%)
    Language                    : Spanish
    Default                     : Yes
    Forced                      : Yes

  • Peso: 25.0 GiB

Sinopsis

En un Japón futurista, la joven Motoko Kusanagi, también conocida como ‘the Major’ Mira Killian, es la líder de grupo operativo de élite, Sección 9, cuyo objetivo es luchar contra el ciber-terrorismo y los crímenes tecnológicos. Al mando de esta unidad de operaciones encubiertas está Aramaki y destaca Batou, un ex-militar considerado como uno de los agentes más salvajes del grupo. Pero, después de un peligrosa misión, el cuerpo de Kusanagi queda dañado, siendo sometida a una operación quirúrgica para trasplantar su cerebro en un cuerpo robótico. Este nuevo cuerpo artificial le permitirá ser capaz de realizar hazañas sobrehumanas especialmente requeridas para su trabajo… Basada en la aclamada saga homónima de ciencia ficción.

Ficha técnica

Video trailer de la película

Enlaces de descarga

Rip de Bluray

Descargar Ghost in the Shell vigilante del futuro (2017) REMUX 1080p Latino




Aportes de DPeliculasHDmega la pass es:dpeliculashdmega.org Aportes de CinemaniaHD la pass es:cinemaniahdd.com Aportes recientes:cinemaniahdd.net

Películas relacionadas

descargar Ghost in the Shell vigilante del futuro (2017) REMUX 1080p Latino Full 1080p 1080p gratis, Ghost in the Shell vigilante del futuro (2017) REMUX 1080p Latino Full 1080p mega 1 link, Ghost in the Shell vigilante del futuro (2017) REMUX 1080p Latino Full 1080p pelicula completa, descargar Ghost in the Shell vigilante del futuro (2017) REMUX 1080p Latino Full 1080p gratis en mega.

Ghost in the Shell vigilante del futuro (2017) REMUX 1080p Latino pelicula full hd, Ghost in the Shell vigilante del futuro (2017) REMUX 1080p Latino mega latino, Ghost in the Shell vigilante del futuro (2017) REMUX 1080p Latino 4k latino, Ghost in the Shell vigilante del futuro (2017) REMUX 1080p Latino pelicula completa, Ghost in the Shell vigilante del futuro (2017) REMUX 1080p Latino descargar gratis, descargar Ghost in the Shell vigilante del futuro (2017) REMUX 1080p Latino pelicula latino, Ghost in the Shell vigilante del futuro (2017) REMUX 1080p Latino 1 link mega, Ghost in the Shell vigilante del futuro (2017) REMUX 1080p Latino 1 link google drive, Ghost in the Shell vigilante del futuro (2017) REMUX 1080p Latino hd 1080p latino.
Comentarios 0