×

¿Problemas para descargar con Mozilla, EDGE? Deshabilita la opción "Abrir vinculos en una pestaña nueva" tal como lo muestra ésta imagen.

Enriquecer O Morir (2005) REMUX 1080p Latino

181 vistas

Información de Enriquecer O Morir (2005) REMUX 1080p Latino

Datos de la película

  • Calidad: Full 1080p
  • Audio: Se especifica abajo de la Sinopsis
  • Subtitulos: Español Latino SRT - Ingles SRT
  • Resolución: 1920x1080p
  • Formato: MKV
  • Codec: H.264
  • Encoder: CinefiloCool
  • Mediainfo: Clic para Mostrar Datos Ver
  • Enriquecer o morir (2005) REMUX 1080p Latino-CMHDD.mkv
    Format                      : Matroska
    Format version              : Version 4
    File size                   : 30.2 GiB
    Duration                    : 1 h 56 min
    Overall bit rate mode       : Variable
    Overall bit rate            : 37.1 Mb/s
    Movie name                  : Get Rich Or Die Tryin (2005) CinemaniaHDD.Net
    Encoded date                : UTC 2021-05-29 08:56:06
    Writing application         : mkvmerge v56.1.0 ('My Friend') 64-bit
    Writing library             : libebml v1.4.2 + libmatroska v1.6.4
    Attachments                 : CINEMANIAHD.png

    Video
    ID                          : 1
    ID in the original source m : 4113 (0x1011)
    Format                      : AVC
    Format/Info                 : Advanced Video Codec
    Format profile              : High@L4.1
    Format settings             : CABAC / 4 Ref Frames
    Format settings, CABAC      : Yes
    Format settings, Reference  : 4 frames
    Codec ID                    : V_MPEG4/ISO/AVC
    Duration                    : 1 h 56 min
    Bit rate mode               : Variable
    Bit rate                    : 32.7 Mb/s
    Maximum bit rate            : 38.0 Mb/s
    Width                       : 1 920 pixels
    Height                      : 1 080 pixels
    Display aspect ratio        : 16:9
    Frame rate mode             : Constant
    Frame rate                  : 23.976 (24000/1001) FPS
    Color space                 : YUV
    Chroma subsampling          : 4:2:0
    Bit depth                   : 8 bits
    Scan type                   : Progressive
    Bits/(Pixel*Frame)          : 0.657
    Stream size                 : 26.6 GiB (88%)
    Title                       : REMUX HD1080p [CinemaniaHDD]
    Language                    : English
    Default                     : Yes
    Forced                      : No
    Original source medium      : Blu-ray

    Audio #1
    ID                          : 2
    Format                      : AC-3
    Format/Info                 : Audio Coding 3
    Commercial name             : Dolby Digital
    Codec ID                    : A_AC3
    Duration                    : 1 h 56 min
    Bit rate mode               : Constant
    Bit rate                    : 448 kb/s
    Channel(s)                  : 6 channels
    Channel layout              : L R C LFE Ls Rs
    Sampling rate               : 48.0 kHz
    Frame rate                  : 31.250 FPS (1536 SPF)
    Compression mode            : Lossy
    Delay relative to video     : 13 ms
    Stream size                 : 373 MiB (1%)
    Title                       : Español Latino [CinemaniaHDD]
    Language                    : Spanish
    Service kind                : Complete Main
    Default                     : Yes
    Forced                      : No

    Audio #2
    ID                          : 3
    ID in the original source m : 4352 (0x1100)
    Format                      : MLP FBA
    Format/Info                 : Meridian Lossless Packing FBA
    Commercial name             : Dolby TrueHD
    Codec ID                    : A_TRUEHD
    Duration                    : 1 h 56 min
    Bit rate mode               : Variable
    Bit rate                    : 3 263 kb/s
    Maximum bit rate            : 4 848 kb/s
    Channel(s)                  : 6 channels
    Channel layout              : L R C LFE Ls Rs
    Sampling rate               : 48.0 kHz
    Frame rate                  : 1 200.000 FPS (40 SPF)
    Bit depth                   : 24 bits
    Compression mode            : Lossless
    Stream size                 : 2.65 GiB (9%)
    Title                       : Ingles THD [CinemaniaHDD]
    Language                    : English
    Default                     : No
    Forced                      : No
    Original source medium      : Blu-ray

    Audio #3
    ID                          : 4
    ID in the original source m : 4352 (0x1100)
    Format                      : AC-3
    Format/Info                 : Audio Coding 3
    Commercial name             : Dolby Digital
    Codec ID                    : A_AC3
    Duration                    : 1 h 56 min
    Bit rate mode               : Constant
    Bit rate                    : 640 kb/s
    Channel(s)                  : 6 channels
    Channel layout              : L R C LFE Ls Rs
    Sampling rate               : 48.0 kHz
    Frame rate                  : 31.250 FPS (1536 SPF)
    Compression mode            : Lossy
    Stream size                 : 533 MiB (2%)
    Title                       : Ingles AC3 [CinemaniaHDD]
    Language                    : English
    Service kind                : Complete Main
    Default                     : No
    Forced                      : No
    Original source medium      : Blu-ray

    Text #1
    ID                          : 5
    Format                      : UTF-8
    Codec ID                    : S_TEXT/UTF8
    Codec ID/Info               : UTF-8 Plain Text
    Duration                    : 1 h 40 min
    Bit rate                    : 0 b/s
    Count of elements           : 8
    Stream size                 : 190 Bytes (0%)
    Title                       : Forzados-SRT [CinemaniaHDD]
    Language                    : Spanish
    Default                     : Yes
    Forced                      : No

    Text #2
    ID                          : 6
    Format                      : UTF-8
    Codec ID                    : S_TEXT/UTF8
    Codec ID/Info               : UTF-8 Plain Text
    Duration                    : 1 h 50 min
    Bit rate                    : 50 b/s
    Count of elements           : 1332
    Stream size                 : 41.0 KiB (0%)
    Title                       : Español-SRT [CinemaniaHDD]
    Language                    : Spanish
    Default                     : No
    Forced                      : No

    Text #3
    ID                          : 7
    Format                      : UTF-8
    Codec ID                    : S_TEXT/UTF8
    Codec ID/Info               : UTF-8 Plain Text
    Duration                    : 1 h 50 min
    Bit rate                    : 62 b/s
    Count of elements           : 1487
    Stream size                 : 50.7 KiB (0%)
    Title                       : Ingles-SRT [CinemaniaHDD]
    Language                    : Spanish
    Default                     : No
    Forced                      : No

    Menu
    00:00:00.000                : Chapter 01
    00:06:26.594                : Chapter 02
    00:12:46.640                : Chapter 03
    00:18:05.667                : Chapter 04
    00:22:49.618                : Chapter 05
    00:28:00.136                : Chapter 06
    00:34:29.525                : Chapter 07
    00:41:13.721                : Chapter 08
    00:46:17.733                : Chapter 09
    00:53:32.626                : Chapter 10
    01:00:47.518                : Chapter 11
    01:06:45.793                : Chapter 12
    01:12:59.541                : Chapter 13
    01:18:28.870                : Chapter 14
    01:24:06.207                : Chapter 15
    01:29:59.143                : Chapter 16
    01:36:04.091                : Chapter 17
    01:42:54.668                : Chapter 18

  • Peso: 30.2 GiB

Sinopsis

Descargar Enriquecer O Morir (2005) REMUX 1080p Latino. Como en el caso de la película 8 Mile protagonizada por Eminem; Get Rich or Die Tryin es una película semi-autobiográfica que esta basada en la vida real del cantante 50 Cent. Un chico huérfano, que siempre ha vivido en la calle, llega a ser con el paso del tiempo un poderoso traficante de drogas, pero, inesperadamente, decide dejarlo todo para triunfar en el mundo de la música.

Audio Español Latino AC3 5.1 DVD – Ingles TrueHD + AC3 5.1 Bluray
Nuevo Release en Bluray!!
Disponible Solo Para VIP!!! 🙂

Ficha técnica

  • Titulo original: Get Rich or Die Tryin'
  • Fecha de lanzamiento: 09-11-2005 (United States of America)
  • Director: Jim Sheridan
  • Género: Drama, Música, Remux

Video trailer de la película

Enlaces de descarga

Rip de Bluray

Descargar Enriquecer O Morir (2005) REMUX 1080p Latino


Aportes de DPeliculasHDmega la pass es:dpeliculashdmega.org Aportes de CinemaniaHD la pass es:cinemaniahdd.com
Guardado en : Drama , Música , Remux

Películas relacionadas

  • Mi amigo el dragón (2016) REMUX 1080p Latino

    Mi amigo el dragón (2016) REMUX 1080p Latino

    2016
    Mi amigo el dragón (2016) REMUX 1080p Latino

    1h 43m 2016

    Descargar Mi amigo el dragón (2016) REMUX 1080p Latino. Durante años el Sr. Meacham, un viejo tallador...

    Director: Joe Nolan

    Género: Aventura

    Actores: William J. Rawbone

  • El discurso del Rey (2010) 1080p Latino

    El discurso del Rey (2010) 1080p Latino

    2010
    El discurso del Rey (2010) 1080p Latino

    1h 58m 2010

    Descargar El discurso del Rey (2010) 1080p Latino. El duque de York se convirtió en rey de Gran Bretaña...

    Director: Tom Hooper

    Género: Drama

    Actores: Tony Earnshaw

  • El discurso del Rey (2010) Full HD 1080p Latino

    El discurso del Rey (2010) Full HD 1080p Latino

    2010
    El discurso del Rey (2010) Full HD 1080p Latino

    1h 58m 2010

    Descargar El discurso del Rey (2010) Full HD 1080p Latino. El duque de York se convirtió en rey de Gran...

    Director: Tom Hooper

    Género: Drama

    Actores: Tony Earnshaw

  • El discurso del Rey (2010) REMUX 1080p Latino

    El discurso del Rey (2010) REMUX 1080p Latino

    2010
    El discurso del Rey (2010) REMUX 1080p Latino

    1h 58m 2010

    Descargar El discurso del Rey (2010) REMUX 1080p Latino. El duque de York se convirtió en rey de Gran...

    Director: Tom Hooper

    Género: Drama

    Actores: Tony Earnshaw

descargar Enriquecer O Morir (2005) REMUX 1080p Latino Full 1080p 1080p gratis, Enriquecer O Morir (2005) REMUX 1080p Latino Full 1080p mega 1 link, Enriquecer O Morir (2005) REMUX 1080p Latino Full 1080p pelicula completa, descargar Enriquecer O Morir (2005) REMUX 1080p Latino Full 1080p gratis en mega.

Enriquecer O Morir (2005) REMUX 1080p Latino pelicula full hd, Enriquecer O Morir (2005) REMUX 1080p Latino mega latino, Enriquecer O Morir (2005) REMUX 1080p Latino 4k latino, Enriquecer O Morir (2005) REMUX 1080p Latino pelicula completa, Enriquecer O Morir (2005) REMUX 1080p Latino descargar gratis, descargar Enriquecer O Morir (2005) REMUX 1080p Latino pelicula latino, Enriquecer O Morir (2005) REMUX 1080p Latino 1 link mega, Enriquecer O Morir (2005) REMUX 1080p Latino 1 link google drive, Enriquecer O Morir (2005) REMUX 1080p Latino hd 1080p latino.
Comentarios 0