×

¿Problemas para descargar con Mozilla, EDGE? Deshabilita la opción "Abrir vinculos en una pestaña nueva" tal como lo muestra ésta imagen.

Enriquecer O Morir (2005) 1080p Latino

194 vistas

Información de Enriquecer O Morir (2005) 1080p Latino

Datos de la película

  • Calidad: 1080p
  • Audio: Español Latino AC3 5.1 DVD - Ingles AC3 5.1 BLURAY
  • Subtitulos: Español Latino SRT - Ingles SRT
  • Resolución: 1920x818p
  • Formato: MKV
  • Codec: H.264
  • Encoder: CinefiloCool
  • Mediainfo: Clic para Mostrar Datos Ver
  • Enriquecer o morir (2005) 1080p Latino-CMHDD.mkv
    Format                      : Matroska
    Format version              : Version 4
    File size                   : 5.12 GiB
    Duration                    : 1 h 56 min
    Overall bit rate            : 6 301 kb/s
    Movie name                  : Get Rich Or Die Tryin (2005) CinemaniaHDD.Net
    Encoded date                : UTC 2021-05-30 06:22:40
    Writing application         : mkvmerge v56.1.0 ('My Friend') 64-bit
    Writing library             : libebml v1.4.2 + libmatroska v1.6.4
    Attachments                 : CINEMANIAHD.png

    Video
    ID                          : 1
    Format                      : AVC
    Format/Info                 : Advanced Video Codec
    Format profile              : High@L4.1
    Format settings             : CABAC / 5 Ref Frames
    Format settings, CABAC      : Yes
    Format settings, Reference  : 5 frames
    Codec ID                    : V_MPEG4/ISO/AVC
    Duration                    : 1 h 56 min
    Bit rate                    : 5 403 kb/s
    Width                       : 1 920 pixels
    Height                      : 818 pixels
    Display aspect ratio        : 2.35:1
    Frame rate mode             : Constant
    Frame rate                  : 23.976 (24000/1001) FPS
    Color space                 : YUV
    Chroma subsampling          : 4:2:0
    Bit depth                   : 8 bits
    Scan type                   : Progressive
    Bits/(Pixel*Frame)          : 0.143
    Stream size                 : 4.39 GiB (86%)
    Title                       : HD1080p [CinemaniaHDD]
    Writing library             : x264 core 157 r2935 545de2f
    Encoding settings           : cabac=1 / ref=5 / deblock=1:-2:-2 / analyse=0x3:0x133 / me=umh / subme=9 / psy=1 / psy_rd=1.00:0.25 / mixed_ref=1 / me_range=16 / chroma_me=1 / trellis=2 / 8x8dct=1 / cqm=0 / deadzone=6,6 / fast_pskip=1 / chroma_qp_offset=-4 / threads=24 / lookahead_threads=2 / sliced_threads=0 / nr=0 / decimate=0 / interlaced=0 / bluray_compat=0 / constrained_intra=0 / bframes=3 / b_pyramid=2 / b_adapt=2 / b_bias=0 / direct=3 / weightb=1 / open_gop=0 / weightp=2 / keyint=240 / keyint_min=24 / scenecut=40 / intra_refresh=0 / rc_lookahead=60 / rc=crf / mbtree=1 / crf=23.0 / qcomp=0.80 / qpmin=0 / qpmax=69 / qpstep=4 / vbv_maxrate=62500 / vbv_bufsize=78125 / crf_max=0.0 / nal_hrd=none / filler=0 / ip_ratio=1.10 / aq=1:0.50
    Default                     : Yes
    Forced                      : Yes
    Color range                 : Limited
    Color primaries             : BT.709
    Transfer characteristics    : BT.709
    Matrix coefficients         : BT.709

    Audio #1
    ID                          : 2
    Format                      : AC-3
    Format/Info                 : Audio Coding 3
    Commercial name             : Dolby Digital
    Codec ID                    : A_AC3
    Duration                    : 1 h 56 min
    Bit rate mode               : Constant
    Bit rate                    : 448 kb/s
    Channel(s)                  : 6 channels
    Channel layout              : L R C LFE Ls Rs
    Sampling rate               : 48.0 kHz
    Frame rate                  : 31.250 FPS (1536 SPF)
    Compression mode            : Lossy
    Delay relative to video     : 8 ms
    Stream size                 : 373 MiB (7%)
    Title                       : Español Latino [CinemaniaHDD]
    Language                    : Spanish
    Service kind                : Complete Main
    Default                     : Yes
    Forced                      : Yes

    Audio #2
    ID                          : 3
    Format                      : AC-3
    Format/Info                 : Audio Coding 3
    Commercial name             : Dolby Digital
    Codec ID                    : A_AC3
    Duration                    : 1 h 56 min
    Bit rate mode               : Constant
    Bit rate                    : 448 kb/s
    Channel(s)                  : 6 channels
    Channel layout              : L R C LFE Ls Rs
    Sampling rate               : 48.0 kHz
    Frame rate                  : 31.250 FPS (1536 SPF)
    Compression mode            : Lossy
    Delay relative to video     : -5 ms
    Stream size                 : 373 MiB (7%)
    Title                       : Ingles [CinemaniaHDD]
    Language                    : English
    Service kind                : Complete Main
    Default                     : No
    Forced                      : No

    Text #1
    ID                          : 4
    Format                      : UTF-8
    Codec ID                    : S_TEXT/UTF8
    Codec ID/Info               : UTF-8 Plain Text
    Duration                    : 1 h 40 min
    Bit rate                    : 0 b/s
    Count of elements           : 8
    Stream size                 : 190 Bytes (0%)
    Title                       : Forzados-SRT [CinemaniaHDD]
    Language                    : Spanish
    Default                     : Yes
    Forced                      : Yes

    Text #2
    ID                          : 5
    Format                      : UTF-8
    Codec ID                    : S_TEXT/UTF8
    Codec ID/Info               : UTF-8 Plain Text
    Duration                    : 1 h 50 min
    Bit rate                    : 50 b/s
    Count of elements           : 1332
    Stream size                 : 41.0 KiB (0%)
    Title                       : Español-SRT [CinemaniaHDD]
    Language                    : Spanish
    Default                     : No
    Forced                      : No

    Text #3
    ID                          : 6
    Format                      : UTF-8
    Codec ID                    : S_TEXT/UTF8
    Codec ID/Info               : UTF-8 Plain Text
    Duration                    : 1 h 50 min
    Bit rate                    : 62 b/s
    Count of elements           : 1487
    Stream size                 : 50.7 KiB (0%)
    Title                       : Ingles-SRT [CinemaniaHDD]
    Language                    : Spanish
    Default                     : No
    Forced                      : No

    Menu
    00:00:00.000                : Chapter 01
    00:06:26.594                : Chapter 02
    00:12:46.640                : Chapter 03
    00:18:05.667                : Chapter 04
    00:22:49.618                : Chapter 05
    00:28:00.136                : Chapter 06
    00:34:29.525                : Chapter 07
    00:41:13.721                : Chapter 08
    00:46:17.733                : Chapter 09
    00:53:32.626                : Chapter 10
    01:00:47.518                : Chapter 11
    01:06:45.793                : Chapter 12
    01:12:59.541                : Chapter 13
    01:18:28.870                : Chapter 14
    01:24:06.207                : Chapter 15
    01:29:59.143                : Chapter 16
    01:36:04.091                : Chapter 17
    01:42:54.668                : Chapter 18

  • Peso: 5.12 GiB

Sinopsis

Descargar Enriquecer O Morir (2005) 1080p Latino. Como en el caso de la película 8 Mile protagonizada por Eminem; Get Rich or Die Tryin es una película semi-autobiográfica que esta basada en la vida real del cantante 50 Cent. Un chico huérfano, que siempre ha vivido en la calle, llega a ser con el paso del tiempo un poderoso traficante de drogas, pero, inesperadamente, decide dejarlo todo para triunfar en el mundo de la música.

Ficha técnica

Video trailer de la película

Enlaces de descarga

Rip de Bluray

Descargar Enriquecer O Morir (2005) 1080p Latino




Aportes de DPeliculasHDmega la pass es:dpeliculashdmega.org Aportes de CinemaniaHD la pass es:cinemaniahdd.com
Guardado en : Drama , HD 1080p , Música

Películas relacionadas

descargar Enriquecer O Morir (2005) 1080p Latino 1080p 1080p gratis, Enriquecer O Morir (2005) 1080p Latino 1080p mega 1 link, Enriquecer O Morir (2005) 1080p Latino 1080p pelicula completa, descargar Enriquecer O Morir (2005) 1080p Latino 1080p gratis en mega.

Enriquecer O Morir (2005) 1080p Latino pelicula full hd, Enriquecer O Morir (2005) 1080p Latino mega latino, Enriquecer O Morir (2005) 1080p Latino 4k latino, Enriquecer O Morir (2005) 1080p Latino pelicula completa, Enriquecer O Morir (2005) 1080p Latino descargar gratis, descargar Enriquecer O Morir (2005) 1080p Latino pelicula latino, Enriquecer O Morir (2005) 1080p Latino 1 link mega, Enriquecer O Morir (2005) 1080p Latino 1 link google drive, Enriquecer O Morir (2005) 1080p Latino hd 1080p latino.
Comentarios 0