×

¿Problemas para descargar con Mozilla, EDGE? Deshabilita la opción "Abrir vinculos en una pestaña nueva" tal como lo muestra ésta imagen.

Get Duked! (2019) AMZN WEB-DL 1080p Latino

343 vistas

Información de Get Duked! (2019) AMZN WEB-DL 1080p Latino

Datos de la película

  • Calidad: WEBDL
  • Audio: Español Latino E-AC3 5.1 AMAZON - Ingles E-AC3 5.1 AMAZON
  • Subtitulos: Español Latino SRT- FORZADOS SRT
  • Resolución: 1920x800
  • Formato: MKV
  • Codec: H.264
  • Encoder: cinemaniahdd
  • Mediainfo: Clic para Mostrar Datos Ver
  • Get Duked! (2019) AMZN WEB-DL 1080p Latino [CNMNHDD].mkv
    Format                      : Matroska
    Format version              : Version 4
    File size                   : 5.45 GiB
    Duration                    : 1 h 26 min
    Overall bit rate            : 9 007 kb/s
    Movie name                  : Get Duked! (2019) - CinemaniaHDD.Net
    Encoded date                : UTC 2020-08-28 19:17:24
    Writing application         : mkvmerge v46.0.0 ('No Deeper Escape') 64-bit
    Writing library             : libebml v1.3.10 + libmatroska v1.5.2

    Video
    ID                          : 1
    Format                      : AVC
    Format/Info                 : Advanced Video Codec
    Format profile              : High@L4
    Format settings             : CABAC / 4 Ref Frames
    Format settings, CABAC      : Yes
    Format settings, Reference  : 4 frames
    Codec ID                    : V_MPEG4/ISO/AVC
    Duration                    : 1 h 26 min
    Bit rate mode               : Constant
    Bit rate                    : 7 085 kb/s
    Nominal bit rate            : 10 000 kb/s
    Width                       : 1 920 pixels
    Height                      : 800 pixels
    Display aspect ratio        : 2.40:1
    Frame rate mode             : Constant
    Frame rate                  : 23.976 (24000/1001) FPS
    Color space                 : YUV
    Chroma subsampling          : 4:2:0
    Bit depth                   : 8 bits
    Scan type                   : Progressive
    Bits/(Pixel*Frame)          : 0.192
    Stream size                 : 4.29 GiB (79%)
    Title                       : CinemaniaHDD
    Default                     : Yes
    Forced                      : No
    Color range                 : Limited
    Color primaries             : BT.709
    Transfer characteristics    : BT.709
    Matrix coefficients         : BT.709

    Audio #1
    ID                          : 2
    Format                      : AC-3
    Format/Info                 : Audio Coding 3
    Commercial name             : Dolby Digital
    Codec ID                    : A_AC3
    Duration                    : 1 h 26 min
    Bit rate mode               : Constant
    Bit rate                    : 640 kb/s
    Channel(s)                  : 6 channels
    Channel layout              : L R C LFE Ls Rs
    Sampling rate               : 48.0 kHz
    Frame rate                  : 31.250 FPS (1536 SPF)
    Compression mode            : Lossy
    Stream size                 : 397 MiB (7%)
    Title                       : Español latino [CinemaniaHDD]
    Language                    : Spanish
    Service kind                : Complete Main
    Default                     : Yes
    Forced                      : Yes

    Audio #2
    ID                          : 3
    Format                      : E-AC-3
    Format/Info                 : Enhanced AC-3
    Commercial name             : Dolby Digital Plus
    Codec ID                    : A_EAC3
    Duration                    : 1 h 26 min
    Bit rate mode               : Constant
    Bit rate                    : 640 kb/s
    Channel(s)                  : 6 channels
    Channel layout              : L R C LFE Ls Rs
    Sampling rate               : 48.0 kHz
    Frame rate                  : 31.250 FPS (1536 SPF)
    Compression mode            : Lossy
    Stream size                 : 397 MiB (7%)
    Title                       : Español latino [CinemaniaHDD]
    Language                    : Spanish
    Service kind                : Complete Main
    Default                     : No
    Forced                      : No

    Audio #3
    ID                          : 4
    Format                      : E-AC-3
    Format/Info                 : Enhanced AC-3
    Commercial name             : Dolby Digital Plus
    Codec ID                    : A_EAC3
    Duration                    : 1 h 26 min
    Bit rate mode               : Constant
    Bit rate                    : 640 kb/s
    Channel(s)                  : 6 channels
    Channel layout              : L R C LFE Ls Rs
    Sampling rate               : 48.0 kHz
    Frame rate                  : 31.250 FPS (1536 SPF)
    Compression mode            : Lossy
    Stream size                 : 397 MiB (7%)
    Title                       : Inglés [CinemaniaHDD]
    Language                    : English
    Service kind                : Complete Main
    Default                     : No
    Forced                      : No

    Text #1
    ID                          : 5
    Format                      : UTF-8
    Codec ID                    : S_TEXT/UTF8
    Codec ID/Info               : UTF-8 Plain Text
    Duration                    : 1 h 22 min
    Bit rate                    : 1 b/s
    Count of elements           : 46
    Stream size                 : 1.20 KiB (0%)
    Title                       : Forzados [CinemaniaHDD]
    Language                    : Spanish
    Default                     : Yes
    Forced                      : Yes

    Text #2
    ID                          : 6
    Format                      : UTF-8
    Codec ID                    : S_TEXT/UTF8
    Codec ID/Info               : UTF-8 Plain Text
    Duration                    : 1 h 25 min
    Bit rate                    : 64 b/s
    Count of elements           : 1300
    Stream size                 : 40.5 KiB (0%)
    Title                       : Español latino [CinemaniaHDD]
    Language                    : Spanish
    Default                     : No
    Forced                      : No

    Text #3
    ID                          : 7
    Format                      : UTF-8
    Codec ID                    : S_TEXT/UTF8
    Codec ID/Info               : UTF-8 Plain Text
    Duration                    : 1 h 26 min
    Bit rate                    : 96 b/s
    Count of elements           : 1848
    Stream size                 : 61.2 KiB (0%)
    Title                       : Inglés [CinemaniaHDD]
    Language                    : English
    Default                     : No
    Forced                      : No

    Menu
    00:00:00.000                : en:Amazon Original
    00:00:23.000                : en:Studio Logo
    00:00:32.000                : en:The Duke of Edinburgh Award
    00:01:56.000                : en:Opening Credits | A long drive
    00:02:56.000                : en:Roll call
    00:05:59.000                : en:An overview of the course
    00:09:07.000                : en:Title Sequence
    00:09:21.000                : en:Teamwork
    00:16:45.000                : en:A warning about the Highlands
    00:19:18.000                : en:An unexpected twist
    00:26:23.000                : en:A new priority
    00:27:53.000                : en:Suspicions run high
    00:34:13.000                : en:Meet The Duchess
    00:36:33.000                : en:This is an important case
    00:37:32.000                : en:Failing at teamwork
    00:39:13.000                : en:Finding clues
    00:40:47.000                : en:An argument
    00:42:36.000                : en:Ian tries to run
    00:43:25.000                : en:Hiding in caves
    00:44:22.000                : en:Hiding in old ruins
    00:45:21.000                : en:Entering the barn
    00:46:28.000                : en:Running from The Duke
    00:47:02.000                : en:The high-lands
    00:48:18.000                : en:Ian's in trouble
    00:49:48.000                : en:DJ Beatroot
    00:56:01.000                : en:Teamwork
    00:59:30.000                : en:A change in priorities
    01:02:51.000                : en:Orienteering
    01:04:12.000                : en:Trail of clues
    01:04:56.000                : en:Farmer's courage
    01:07:42.000                : en:Get duked!
    01:15:29.000                : en:The Duke of Edinburgh Award
    01:21:07.000                : en:Give 'em hell
    01:22:32.000                : en:Final Title Sequence
    01:23:10.000                : en:End Credits

     

  • Peso: 5.45 GiB

Sinopsis

Ubicado en las Tierras Altas de Escocia, Get Duked! es un cóctel anárquico de política generacional, granjeros amantes del hip-hop y excremento alucinógeno de conejos.

Ficha técnica

Video trailer de la película

Enlaces de descarga

Rip de Bluray

Descargar Get Duked! (2019) AMZN WEB-DL 1080p Latino




Aportes de DPeliculasHDmega la pass es:dpeliculashdmega.org Aportes de CinemaniaHD la pass es:cinemaniahdd.com
Guardado en : Acción , Comedia , Música , Terror

Películas relacionadas

  • Shotgun Wedding (2022) AMZN WEB-DL 1080p Latino

    Shotgun Wedding (2022) AMZN WEB-DL 1080p Latino

    2022
    Shotgun Wedding (2022) AMZN WEB-DL 1080p Latino

    1h 41m 2022

    Darcy y Tom reúnen a sus familias para la boda de destino definitiva, pero cuando toman como rehenes...

    Director: Jason Moore

    Género: Acción

    Actores: Steve Coulter

  • M3GAN (2023) AMZN WEB-DL 4K UHD HDR Latino

    M3GAN (2023) AMZN WEB-DL 4K UHD HDR Latino

    2022
    M3GAN (2023) AMZN WEB-DL 4K UHD HDR Latino

    1h 42m 2022

    Descargar M3GAN (2023) AMZN WEB-DL 4K UHD HDR Latino. Cuando Gemma se convierte en la cuidadora de su...

    Director: Stephen W. Moore

    Género: 4K HDR

    Actores: Violet McGraw

  • M3GAN (2022) MA WEB-DL 1080p Latino

    M3GAN (2022) MA WEB-DL 1080p Latino

    2022
    M3GAN (2022) MA WEB-DL 1080p Latino

    1h 42m 2022

    Descargar M3GAN (2022) MA WEB-DL 1080p Latino. Cuando Gemma se convierte en la cuidadora de su sobrina...

    Director: Stephen W. Moore

    Género: Ciencia ficción

    Actores: Violet McGraw

  • Mar de sangre (2022) WEB-DL 1080p Latino

    Mar de sangre (2022) WEB-DL 1080p Latino

    2022
    Mar de sangre (2022) WEB-DL 1080p Latino

    1h 27m 2022

    Descargar Mar de sangre (2022) WEB-DL 1080p Latino. Un grupo de amigos que disfrutan de un fin de semana...

    Director: James Nunn

    Género: Acción

    Actores: Thomas Michael Flynn

descargar Get Duked! (2019) AMZN WEB-DL 1080p Latino WEBDL 1080p gratis, Get Duked! (2019) AMZN WEB-DL 1080p Latino WEBDL mega 1 link, Get Duked! (2019) AMZN WEB-DL 1080p Latino WEBDL pelicula completa, descargar Get Duked! (2019) AMZN WEB-DL 1080p Latino WEBDL gratis en mega.

Get Duked! (2019) AMZN WEB-DL 1080p Latino pelicula full hd, Get Duked! (2019) AMZN WEB-DL 1080p Latino mega latino, Get Duked! (2019) AMZN WEB-DL 1080p Latino 4k latino, Get Duked! (2019) AMZN WEB-DL 1080p Latino pelicula completa, Get Duked! (2019) AMZN WEB-DL 1080p Latino descargar gratis, descargar Get Duked! (2019) AMZN WEB-DL 1080p Latino pelicula latino, Get Duked! (2019) AMZN WEB-DL 1080p Latino 1 link mega, Get Duked! (2019) AMZN WEB-DL 1080p Latino 1 link google drive, Get Duked! (2019) AMZN WEB-DL 1080p Latino hd 1080p latino.
Comentarios 0