×

¿Problemas para descargar con Mozilla, EDGE? Deshabilita la opción "Abrir vinculos en una pestaña nueva" tal como lo muestra ésta imagen.

Get Duked! (2019) AMZN 4K-WEB-DL 2160p Latino

309 vistas

Información de Get Duked! (2019) AMZN 4K-WEB-DL 2160p Latino

Datos de la película

  • Calidad: WEBDL
  • Audio: Español Latino E-AC3 5.1 AMAZON - Ingles E-AC3 5.1 AMAZON
  • Subtitulos: Español Latino SRT- FORZADOS SRT
  • Resolución: 1920x1080
  • Formato: MKV
  • Codec: H.264
  • Encoder: cinemaniahdd
  • Mediainfo: Clic para Mostrar Datos Ver
  • Get Duked! (2019) AMZN 4K-WEB-DL 2160p Latino [CNMNHDD].mkv
    Format                      : Matroska
    Format version              : Version 4
    File size                   : 10.1 GiB
    Duration                    : 1 h 26 min
    Overall bit rate            : 16.7 Mb/s
    Movie name                  : Get Duked! (2019) - CinemaniaHDD.Net
    Encoded date                : UTC 2020-08-28 19:38:41
    Writing application         : mkvmerge v46.0.0 ('No Deeper Escape') 64-bit
    Writing library             : libebml v1.3.10 + libmatroska v1.5.2

    Video
    ID                          : 1
    Format                      : HEVC
    Format/Info                 : High Efficiency Video Coding
    Format profile              : Main 10@L5@Main
    HDR format                  : SMPTE ST 2094 App 4, Version 1, HDR10+ Profile B compatible
    Codec ID                    : V_MPEGH/ISO/HEVC
    Duration                    : 1 h 26 min
    Bit rate                    : 14.8 Mb/s
    Width                       : 3 840 pixels
    Height                      : 1 600 pixels
    Display aspect ratio        : 2.40:1
    Frame rate mode             : Constant
    Frame rate                  : 23.976 (24000/1001) FPS
    Color space                 : YUV
    Chroma subsampling          : 4:2:0
    Bit depth                   : 10 bits
    Bits/(Pixel*Frame)          : 0.100
    Stream size                 : 8.94 GiB (88%)
    Title                       : CinemaniaHDD
    Language                    : English
    Default                     : Yes
    Forced                      : No
    Color range                 : Limited
    Color primaries             : BT.2020
    Transfer characteristics    : PQ
    Matrix coefficients         : BT.2020 non-constant
    Mastering display color pri : Display P3
    Mastering display luminance : min: 0.0001 cd/m2, max: 1000 cd/m2
    Maximum Content Light Level : 10000 cd/m2
    Maximum Frame-Average Light : 353 cd/m2

    Audio #1
    ID                          : 2
    Format                      : AC-3
    Format/Info                 : Audio Coding 3
    Commercial name             : Dolby Digital
    Codec ID                    : A_AC3
    Duration                    : 1 h 26 min
    Bit rate mode               : Constant
    Bit rate                    : 640 kb/s
    Channel(s)                  : 6 channels
    Channel layout              : L R C LFE Ls Rs
    Sampling rate               : 48.0 kHz
    Frame rate                  : 31.250 FPS (1536 SPF)
    Compression mode            : Lossy
    Stream size                 : 397 MiB (4%)
    Title                       : Español latino [CinemaniaHDD]
    Language                    : Spanish
    Service kind                : Complete Main
    Default                     : Yes
    Forced                      : Yes

    Audio #2
    ID                          : 3
    Format                      : E-AC-3
    Format/Info                 : Enhanced AC-3
    Commercial name             : Dolby Digital Plus
    Codec ID                    : A_EAC3
    Duration                    : 1 h 26 min
    Bit rate mode               : Constant
    Bit rate                    : 640 kb/s
    Channel(s)                  : 6 channels
    Channel layout              : L R C LFE Ls Rs
    Sampling rate               : 48.0 kHz
    Frame rate                  : 31.250 FPS (1536 SPF)
    Compression mode            : Lossy
    Stream size                 : 397 MiB (4%)
    Title                       : Español latino [CinemaniaHDD]
    Language                    : Spanish
    Service kind                : Complete Main
    Default                     : No
    Forced                      : No

    Audio #3
    ID                          : 4
    Format                      : E-AC-3
    Format/Info                 : Enhanced AC-3
    Commercial name             : Dolby Digital Plus
    Codec ID                    : A_EAC3
    Duration                    : 1 h 26 min
    Bit rate mode               : Constant
    Bit rate                    : 640 kb/s
    Channel(s)                  : 6 channels
    Channel layout              : L R C LFE Ls Rs
    Sampling rate               : 48.0 kHz
    Frame rate                  : 31.250 FPS (1536 SPF)
    Compression mode            : Lossy
    Stream size                 : 397 MiB (4%)
    Title                       : Inglés [CinemaniaHDD]
    Language                    : English
    Service kind                : Complete Main
    Default                     : No
    Forced                      : No

    Text #1
    ID                          : 5
    Format                      : UTF-8
    Codec ID                    : S_TEXT/UTF8
    Codec ID/Info               : UTF-8 Plain Text
    Duration                    : 1 h 22 min
    Bit rate                    : 1 b/s
    Count of elements           : 46
    Stream size                 : 1.20 KiB (0%)
    Title                       : Forzados [CinemaniaHDD]
    Language                    : Spanish
    Default                     : Yes
    Forced                      : Yes

    Text #2
    ID                          : 6
    Format                      : UTF-8
    Codec ID                    : S_TEXT/UTF8
    Codec ID/Info               : UTF-8 Plain Text
    Duration                    : 1 h 25 min
    Bit rate                    : 64 b/s
    Count of elements           : 1300
    Stream size                 : 40.5 KiB (0%)
    Title                       : Español latino [CinemaniaHDD]
    Language                    : Spanish
    Default                     : No
    Forced                      : No

    Text #3
    ID                          : 7
    Format                      : UTF-8
    Codec ID                    : S_TEXT/UTF8
    Codec ID/Info               : UTF-8 Plain Text
    Duration                    : 1 h 26 min
    Bit rate                    : 96 b/s
    Count of elements           : 1848
    Stream size                 : 61.2 KiB (0%)
    Title                       : Inglés [CinemaniaHDD]
    Language                    : English
    Default                     : No
    Forced                      : No

    Menu
    00:00:00.000                : en:Amazon Original
    00:00:23.000                : en:Studio Logo
    00:00:32.000                : en:The Duke of Edinburgh Award
    00:01:56.000                : en:Opening Credits | A long drive
    00:02:56.000                : en:Roll call
    00:05:59.000                : en:An overview of the course
    00:09:07.000                : en:Title Sequence
    00:09:21.000                : en:Teamwork
    00:16:45.000                : en:A warning about the Highlands
    00:19:18.000                : en:An unexpected twist
    00:26:23.000                : en:A new priority
    00:27:53.000                : en:Suspicions run high
    00:34:13.000                : en:Meet The Duchess
    00:36:33.000                : en:This is an important case
    00:37:32.000                : en:Failing at teamwork
    00:39:13.000                : en:Finding clues
    00:40:47.000                : en:An argument
    00:42:36.000                : en:Ian tries to run
    00:43:25.000                : en:Hiding in caves
    00:44:22.000                : en:Hiding in old ruins
    00:45:21.000                : en:Entering the barn
    00:46:28.000                : en:Running from The Duke
    00:47:02.000                : en:The high-lands
    00:48:18.000                : en:Ian's in trouble
    00:49:48.000                : en:DJ Beatroot
    00:56:01.000                : en:Teamwork
    00:59:30.000                : en:A change in priorities
    01:02:51.000                : en:Orienteering
    01:04:12.000                : en:Trail of clues
    01:04:56.000                : en:Farmer's courage
    01:07:42.000                : en:Get duked!
    01:15:29.000                : en:The Duke of Edinburgh Award
    01:21:07.000                : en:Give 'em hell
    01:22:32.000                : en:Final Title Sequence
    01:23:10.000                : en:End Credits

     

  • Peso: 10.1 GiB

Sinopsis

Ubicado en las Tierras Altas de Escocia, Get Duked! es un cóctel anárquico de política generacional, granjeros amantes del hip-hop y excremento alucinógeno de conejos.

Ficha técnica

Video trailer de la película

Enlaces de descarga

Rip de Bluray

Descargar Get Duked! (2019) AMZN 4K-WEB-DL 2160p Latino




Aportes de DPeliculasHDmega la pass es:dpeliculashdmega.org Aportes de CinemaniaHD la pass es:cinemaniahdd.com
Guardado en : Acción , Comedia , Música , Terror

Películas relacionadas

descargar Get Duked! (2019) AMZN 4K-WEB-DL 2160p Latino WEBDL 1080p gratis, Get Duked! (2019) AMZN 4K-WEB-DL 2160p Latino WEBDL mega 1 link, Get Duked! (2019) AMZN 4K-WEB-DL 2160p Latino WEBDL pelicula completa, descargar Get Duked! (2019) AMZN 4K-WEB-DL 2160p Latino WEBDL gratis en mega.

Get Duked! (2019) AMZN 4K-WEB-DL 2160p Latino pelicula full hd, Get Duked! (2019) AMZN 4K-WEB-DL 2160p Latino mega latino, Get Duked! (2019) AMZN 4K-WEB-DL 2160p Latino 4k latino, Get Duked! (2019) AMZN 4K-WEB-DL 2160p Latino pelicula completa, Get Duked! (2019) AMZN 4K-WEB-DL 2160p Latino descargar gratis, descargar Get Duked! (2019) AMZN 4K-WEB-DL 2160p Latino pelicula latino, Get Duked! (2019) AMZN 4K-WEB-DL 2160p Latino 1 link mega, Get Duked! (2019) AMZN 4K-WEB-DL 2160p Latino 1 link google drive, Get Duked! (2019) AMZN 4K-WEB-DL 2160p Latino hd 1080p latino.
Comentarios 0