×

¿Problemas para descargar con Mozilla, EDGE? Deshabilita la opción "Abrir vinculos en una pestaña nueva" tal como lo muestra ésta imagen.

Get a Job (2016) WEB-DL 1080p Latino – CMHDD

82 vistas

Información de Get a Job (2016) WEB-DL 1080p Latino – CMHDD

Datos de la película

  • Calidad: Full 1080p
  • Audio: Español Latino AC3 5.1 WEB-DL - Ingles AC3 5.1 WEB-DL
  • Subtitulos: Español Latino SRT- FORZADOS SRT
  • Resolución: 19201080p
  • Formato: MKV
  • Codec: H.264
  • Encoder: Dracarys
  • Mediainfo: Clic para Mostrar Datos Ver
  • Format                      : Matroska
    Format version              : Version 4
    File size                   : 6.08 GiB
    Duration                    : 1 h 22 min
    Overall bit rate            : 10.5 Mb/s
    Movie name                  : Get a Job (2016) WEB-DL 1080p Latino - CMHDD
    Encoded date                : UTC 2024-04-09 22:11:35
    Writing application         : mkvmerge v47.0.0 ('Black Flag') 64-bit
    Writing library             : libebml v1.3.10 + libmatroska v1.5.2

    Video
    ID                          : 1
    Format                      : AVC
    Format/Info                 : Advanced Video Codec
    Format profile              : High@L4
    Format settings             : CABAC / 4 Ref Frames
    Format settings, CABAC      : Yes
    Format settings, Reference  : 4 frames
    Codec ID                    : V_MPEG4/ISO/AVC
    Duration                    : 1 h 22 min
    Bit rate mode               : Constant
    Bit rate                    : 9 231 kb/s
    Nominal bit rate            : 10 000 kb/s
    Width                       : 1 920 pixels
    Height                      : 1 080 pixels
    Display aspect ratio        : 16:9
    Frame rate mode             : Constant
    Frame rate                  : 23.976 (24000/1001) FPS
    Color space                 : YUV
    Chroma subsampling          : 4:2:0
    Bit depth                   : 8 bits
    Scan type                   : Progressive
    Bits/(Pixel*Frame)          : 0.186
    Stream size                 : 5.34 GiB (88%)
    Default                     : Yes
    Forced                      : No
    Color range                 : Limited
    Color primaries             : BT.709
    Transfer characteristics    : BT.709
    Matrix coefficients         : BT.709

    Audio #1
    ID                          : 2
    Format                      : E-AC-3
    Format/Info                 : Enhanced AC-3
    Commercial name             : Dolby Digital Plus
    Codec ID                    : A_EAC3
    Duration                    : 1 h 22 min
    Bit rate mode               : Constant
    Bit rate                    : 640 kb/s
    Channel(s)                  : 6 channels
    Channel layout              : L R C LFE Ls Rs
    Sampling rate               : 48.0 kHz
    Frame rate                  : 31.250 FPS (1536 SPF)
    Compression mode            : Lossy
    Stream size                 : 379 MiB (6%)
    Language                    : Spanish
    Service kind                : Complete Main
    Default                     : Yes
    Forced                      : Yes

    Audio #2
    ID                          : 3
    Format                      : E-AC-3
    Format/Info                 : Enhanced AC-3
    Commercial name             : Dolby Digital Plus
    Codec ID                    : A_EAC3
    Duration                    : 1 h 22 min
    Bit rate mode               : Constant
    Bit rate                    : 640 kb/s
    Channel(s)                  : 6 channels
    Channel layout              : L R C LFE Ls Rs
    Sampling rate               : 48.0 kHz
    Frame rate                  : 31.250 FPS (1536 SPF)
    Compression mode            : Lossy
    Stream size                 : 379 MiB (6%)
    Language                    : English
    Service kind                : Complete Main
    Default                     : No
    Forced                      : No

    Text #1
    ID                          : 4
    Format                      : UTF-8
    Codec ID                    : S_TEXT/UTF8
    Codec ID/Info               : UTF-8 Plain Text
    Duration                    : 1 s 627 ms
    Bit rate                    : 49 b/s
    Frame rate                  : 0.615 FPS
    Count of elements           : 1
    Stream size                 : 10.0 Bytes (0%)
    Title                       : Forzados
    Language                    : Spanish
    Default                     : Yes
    Forced                      : Yes

    Text #2
    ID                          : 5
    Format                      : UTF-8
    Codec ID                    : S_TEXT/UTF8
    Codec ID/Info               : UTF-8 Plain Text
    Duration                    : 1 h 17 min
    Bit rate                    : 70 b/s
    Frame rate                  : 0.274 FPS
    Count of elements           : 1277
    Stream size                 : 40.4 KiB (0%)
    Language                    : Spanish
    Default                     : No
    Forced                      : No

     

  • Peso: 6.08 GiB

Sinopsis

La vida después de la universidad no es exactamente como lo tenían previsto Will y Jillian, quien se encuentran perdidos en puestos de trabajo cada vez más extraños. Pero con la ayuda de sus familiares, amigos y compañeros de trabajo pronto descubren que las más importantes (y divertidas) aventuras son las que no vemos venir.

Ficha técnica

Video trailer de la película

Enlaces de descarga

Rip de Bluray

Descargar Get a Job (2016) WEB-DL 1080p Latino – CMHDD




Aportes de DPeliculasHDmega la pass es:dpeliculashdmega.org Aportes de CinemaniaHD la pass es:cinemaniahdd.com Aportes recientes:cinemaniahdd.net
Guardado en : Comedia , Drama

Películas relacionadas

  • Red de venganza (2023) HD 1080p Latino

    Red de venganza (2023) HD 1080p Latino

    2023
    Red de venganza (2023) HD 1080p Latino

    1h 25m 2023

    Descargar Red de venganza (2023) HD 1080p Latino. Analiza los problemas que surgen entre una madre (Summer...

    Director: Amy Redford

    Género: Drama

    Actores: Summer Phoenix

  • Red de venganza (2023) REMUX 1080p Latino

    Red de venganza (2023) REMUX 1080p Latino

    2023
    Red de venganza (2023) REMUX 1080p Latino

    1h 25m 2023

    Descargar Red de venganza (2023) REMUX 1080p Latino. Analiza los problemas que surgen entre una madre...

    Director: Amy Redford

    Género: Drama

    Actores: Summer Phoenix

  • Recuerdos Mortales (2024) WEB-DL 1080p Latino

    Recuerdos Mortales (2024) WEB-DL 1080p Latino

    2024
    Recuerdos Mortales (2024) WEB-DL 1080p Latino

    1h 52m 2024

    Descargar Recuerdos Mortales (2024) WEB-DL 1080p Latino. Después de someterse a un tratamiento de vanguardia...

    Director: Adam Cooper

    Género: Crimen

    Actores: Tommy Flanagan

descargar Get a Job (2016) WEB-DL 1080p Latino – CMHDD Full 1080p 1080p gratis, Get a Job (2016) WEB-DL 1080p Latino – CMHDD Full 1080p mega 1 link, Get a Job (2016) WEB-DL 1080p Latino – CMHDD Full 1080p pelicula completa, descargar Get a Job (2016) WEB-DL 1080p Latino – CMHDD Full 1080p gratis en mega.

Get a Job (2016) WEB-DL 1080p Latino – CMHDD pelicula full hd, Get a Job (2016) WEB-DL 1080p Latino – CMHDD mega latino, Get a Job (2016) WEB-DL 1080p Latino – CMHDD 4k latino, Get a Job (2016) WEB-DL 1080p Latino – CMHDD pelicula completa, Get a Job (2016) WEB-DL 1080p Latino – CMHDD descargar gratis, descargar Get a Job (2016) WEB-DL 1080p Latino – CMHDD pelicula latino, Get a Job (2016) WEB-DL 1080p Latino – CMHDD 1 link mega, Get a Job (2016) WEB-DL 1080p Latino – CMHDD 1 link google drive, Get a Job (2016) WEB-DL 1080p Latino – CMHDD hd 1080p latino.
Comentarios 0