×

¿Problemas para descargar con Mozilla, EDGE? Deshabilita la opción "Abrir vinculos en una pestaña nueva" tal como lo muestra ésta imagen.

George of the Jungle (1997) REMUX 1080p Latino – CMHDD

235 vistas

Información de George of the Jungle (1997) REMUX 1080p Latino – CMHDD

Datos de la película

  • Calidad: Full 1080p
  • Audio: Español Latino AC3 2.0 DVD - Ingles DTS 5.1 BLURAY
  • Subtitulos: Español Latino SRT- FORZADOS SRT
  • Resolución: 1920x1080p
  • Formato: MKV
  • Codec: H.264
  • Encoder: Dracarys
  • Mediainfo: Clic para Mostrar Datos Ver
  • Format                      : Matroska
    Format version              : Version 4
    File size                   : 20.7 GiB
    Duration                    : 1 h 31 min
    Overall bit rate mode       : Variable
    Overall bit rate            : 32.3 Mb/s
    Movie name                  : George of the Jungle (1997) REMUX 1080p Latino - CMHDD
    Encoded date                : UTC 2021-08-15 19:41:57
    Writing application         : mkvmerge v56.1.0 ('My Friend') 64-bit
    Writing library             : libebml v1.4.2 + libmatroska v1.6.4
    Cover                       : Yes
    Attachments                 : cover.jpg

    Video
    ID                          : 1
    Format                      : AVC
    Format/Info                 : Advanced Video Codec
    Format profile              : High@L4.1
    Format settings             : CABAC / 4 Ref Frames
    Format settings, CABAC      : Yes
    Format settings, Reference  : 4 frames
    Format settings, GOP        : M=3, N=12
    Codec ID                    : V_MPEG4/ISO/AVC
    Duration                    : 1 h 31 min
    Bit rate mode               : Variable
    Bit rate                    : 27.8 Mb/s
    Maximum bit rate            : 35.0 Mb/s
    Width                       : 1 920 pixels
    Height                      : 1 080 pixels
    Display aspect ratio        : 16:9
    Frame rate mode             : Constant
    Frame rate                  : 23.976 (24000/1001) FPS
    Color space                 : YUV
    Chroma subsampling          : 4:2:0
    Bit depth                   : 8 bits
    Scan type                   : Progressive
    Bits/(Pixel*Frame)          : 0.559
    Stream size                 : 17.8 GiB (86%)
    Default                     : Yes
    Forced                      : No

    Audio #1
    ID                          : 2
    ID in the original source m : 4352 (0x1100)
    Format                      : DTS XLL
    Format/Info                 : Digital Theater Systems
    Commercial name             : DTS-HD Master Audio
    Codec ID                    : A_DTS
    Duration                    : 1 h 31 min
    Bit rate mode               : Variable
    Bit rate                    : 4 309 kb/s
    Channel(s)                  : 6 channels
    Channel layout              : C L R Ls Rs LFE
    Sampling rate               : 48.0 kHz
    Frame rate                  : 93.750 FPS (512 SPF)
    Bit depth                   : 24 bits
    Compression mode            : Lossless
    Stream size                 : 2.76 GiB (13%)
    Language                    : English
    Default                     : No
    Forced                      : No
    Original source medium      : Blu-ray

    Audio #2
    ID                          : 3
    Format                      : AC-3
    Format/Info                 : Audio Coding 3
    Commercial name             : Dolby Digital
    Codec ID                    : A_AC3
    Duration                    : 1 h 31 min
    Bit rate mode               : Constant
    Bit rate                    : 256 kb/s
    Channel(s)                  : 2 channels
    Channel layout              : L R
    Sampling rate               : 48.0 kHz
    Frame rate                  : 31.250 FPS (1536 SPF)
    Compression mode            : Lossy
    Delay relative to video     : 600 ms
    Stream size                 : 168 MiB (1%)
    Language                    : Spanish
    Service kind                : Complete Main
    Default                     : Yes
    Forced                      : No

    Text #1
    ID                          : 4
    Format                      : UTF-8
    Codec ID                    : S_TEXT/UTF8
    Codec ID/Info               : UTF-8 Plain Text
    Duration                    : 1 h 23 min
    Bit rate                    : 8 b/s
    Count of elements           : 122
    Stream size                 : 5.41 KiB (0%)
    Title                       : Forzados
    Language                    : Spanish
    Default                     : Yes
    Forced                      : Yes

    Text #2
    ID                          : 5
    Format                      : UTF-8
    Codec ID                    : S_TEXT/UTF8
    Codec ID/Info               : UTF-8 Plain Text
    Duration                    : 1 h 31 min
    Bit rate                    : 72 b/s
    Count of elements           : 1163
    Stream size                 : 48.7 KiB (0%)
    Title                       : Latino
    Language                    : Spanish
    Default                     : No
    Forced                      : No

    Menu
    00:00:00.000                : Chapter 01
    00:00:26.067                : Chapter 02
    00:04:59.340                : Chapter 03
    00:11:05.998                : Chapter 04
    00:20:03.911                : Chapter 05
    00:23:23.527                : Chapter 06
    00:28:38.758                : Chapter 07
    00:29:47.118                : Chapter 08
    00:34:26.647                : Chapter 09
    00:43:10.337                : Chapter 10
    00:45:29.059                : Chapter 11
    00:50:02.833                : Chapter 12
    00:51:28.752                : Chapter 13
    00:55:18.857                : Chapter 14
    00:56:54.702                : Chapter 15
    01:05:03.566                : Chapter 16
    01:15:46.208                : Chapter 17
    01:22:07.213                : Chapter 18
    01:25:06.351                : Chapter 19

  • Peso: 20.7 GiB

Sinopsis

En lo más profundo de la jungla africana los gorilas han criado a un bebé, George. Crecerá para ser el más valiente rey de la jungla. George va de un árbol a otro llevándose por delante todo lo que está en su camino. Pero cuando una bella mujer llamada Úrsula, procedente de la civilización, irrumpe en el mundo de George, éste perderá definitivamente el control. Dejando atrás la jungla y todos sus salvajes amigos, incluidos Mono, un gorila que habla, y Shep, un elefante que aspira a ser un perro, George aterrizará en la ciudad de San Francisco.

Ficha técnica

Video trailer de la película

Enlaces de descarga

Rip de Bluray

Descargar George of the Jungle (1997) REMUX 1080p Latino – CMHDD


Aportes de DPeliculasHDmega la pass es:dpeliculashdmega.org Aportes de CinemaniaHD la pass es:cinemaniahdd.com
Guardado en : Aventura , Comedia , Familia , Romance

Películas relacionadas

descargar George of the Jungle (1997) REMUX 1080p Latino – CMHDD Full 1080p 1080p gratis, George of the Jungle (1997) REMUX 1080p Latino – CMHDD Full 1080p mega 1 link, George of the Jungle (1997) REMUX 1080p Latino – CMHDD Full 1080p pelicula completa, descargar George of the Jungle (1997) REMUX 1080p Latino – CMHDD Full 1080p gratis en mega.

George of the Jungle (1997) REMUX 1080p Latino – CMHDD pelicula full hd, George of the Jungle (1997) REMUX 1080p Latino – CMHDD mega latino, George of the Jungle (1997) REMUX 1080p Latino – CMHDD 4k latino, George of the Jungle (1997) REMUX 1080p Latino – CMHDD pelicula completa, George of the Jungle (1997) REMUX 1080p Latino – CMHDD descargar gratis, descargar George of the Jungle (1997) REMUX 1080p Latino – CMHDD pelicula latino, George of the Jungle (1997) REMUX 1080p Latino – CMHDD 1 link mega, George of the Jungle (1997) REMUX 1080p Latino – CMHDD 1 link google drive, George of the Jungle (1997) REMUX 1080p Latino – CMHDD hd 1080p latino.