×

¿Problemas para descargar con Mozilla, EDGE? Deshabilita la opción "Abrir vinculos en una pestaña nueva" tal como lo muestra ésta imagen.

Generation Kill (2008) Mini Serie REMUX 1080p Latino – CMHDD

447 vistas

Información de Generation Kill (2008) Mini Serie REMUX 1080p Latino – CMHDD

Datos de la película

  • Calidad: Full 1080p
  • Audio: Español Latino DTS 2.0 BLURAY - Ingles DTS 5.1 BLURAY
  • Subtitulos: Español Latino PGS
  • Resolución: 1920x1080p
  • Formato:
  • Codec: H.264
  • Encoder: Dracarys
  • Mediainfo: Clic para Mostrar Datos Ver
  • Format                      : Matroska
    Format version              : Version 4
    File size                   : 12.1 GiB
    Duration                    : 1 h 8 min
    Overall bit rate mode       : Variable
    Overall bit rate            : 25.4 Mb/s
    Encoded date                : UTC 2021-01-01 18:45:38
    Writing application         : mkvmerge v51.0.0 ('I Wish') 64-bit
    Writing library             : libebml v1.4.0 + libmatroska v1.6.2

    Video
    ID                          : 1
    Format                      : AVC
    Format/Info                 : Advanced Video Codec
    Format profile              : High@L4.1
    Format settings             : CABAC / 4 Ref Frames
    Format settings, CABAC      : Yes
    Format settings, Reference  : 4 frames
    Codec ID                    : V_MPEG4/ISO/AVC
    Duration                    : 1 h 8 min
    Bit rate mode               : Variable
    Bit rate                    : 21.1 Mb/s
    Maximum bit rate            : 38.0 Mb/s
    Width                       : 1 920 pixels
    Height                      : 1 080 pixels
    Display aspect ratio        : 16:9
    Frame rate mode             : Constant
    Frame rate                  : 23.976 (24000/1001) FPS
    Color space                 : YUV
    Chroma subsampling          : 4:2:0
    Bit depth                   : 8 bits
    Scan type                   : Progressive
    Bits/(Pixel*Frame)          : 0.424
    Stream size                 : 10.1 GiB (83%)
    Default                     : Yes
    Forced                      : No
    Color range                 : Limited
    Color primaries             : BT.709
    Transfer characteristics    : BT.709
    Matrix coefficients         : BT.709

    Audio #1
    ID                          : 2
    Format                      : DTS XLL
    Format/Info                 : Digital Theater Systems
    Commercial name             : DTS-HD Master Audio
    Codec ID                    : A_DTS
    Duration                    : 1 h 8 min
    Bit rate mode               : Variable
    Bit rate                    : 3 529 kb/s
    Channel(s)                  : 6 channels
    Channel layout              : C L R Ls Rs LFE
    Sampling rate               : 48.0 kHz
    Frame rate                  : 93.750 FPS (512 SPF)
    Bit depth                   : 24 bits
    Compression mode            : Lossless
    Stream size                 : 1.69 GiB (14%)
    Language                    : English
    Default                     : No
    Forced                      : No

    Audio #2
    ID                          : 3
    Format                      : DTS
    Format/Info                 : Digital Theater Systems
    Codec ID                    : A_DTS
    Duration                    : 1 h 8 min
    Bit rate mode               : Constant
    Bit rate                    : 768 kb/s
    Channel(s)                  : 2 channels
    Channel layout              : L R
    Sampling rate               : 48.0 kHz
    Frame rate                  : 93.750 FPS (512 SPF)
    Bit depth                   : 16 bits
    Compression mode            : Lossy
    Stream size                 : 376 MiB (3%)
    Language                    : Spanish
    Default                     : Yes
    Forced                      : No

    Text
    ID                          : 4
    Format                      : PGS
    Muxing mode                 : zlib
    Codec ID                    : S_HDMV/PGS
    Codec ID/Info               : Picture based subtitle format used on BDs/HD-DVDs
    Duration                    : 1 h 5 min
    Bit rate                    : 66.3 kb/s
    Count of elements           : 2122
    Stream size                 : 31.1 MiB (0%)
    Language                    : Spanish
    Default                     : No
    Forced                      : No
     

  • Peso: 91.4 GiB Total

Sinopsis

Producción bélica de siete episodios que llega de manos del dúo de creadores formado por David Simon y Ed Burns, colaboración a la que debemos series de mucha calidad como ‘The Wire’ o ‘Treme’, también de HBO. La miniserie traslada al espectador a la invasión de los Estados Unidos sobre Irak que tuvo lugar en 2003.

‘Generation Kill’ sigue la historia del batallón First Recon de marines altamente cualificados y entrenados durante los cuarenta primeros días de la guerra de Irak. La verdadera historia de lo que ocurrió, a través de las experiencias de sus protagonistas, profesionales que tuvieron que hacer frente a falta de un adecuado equipamiento, comandantes incompetentes, jerarquías y normas anticuadas que nunca evolucionan y una estrategia nada definida.

Los relatos de los Marines están basados en el aclamado libro homónimo de Evan Wright, que estuvo junto a este batallón y, al principio, publicó la historia en una serie de artículos en la revista Rolling Stone. Actores experimentados en ficción televisiva dan vida a los protagonistas de esta guerra: Alexander Skarsgård (‘True Blood: Sangre fresca’), James Ransone (‘Buscarse la vida en America’, ‘Treme’, ‘The Wire’), Lee Tergesen (‘The River’, ‘Con C mayúscula’, ‘Mujeres desesperadas’, ‘Army Wives’) o Jon Huertas (‘Castle’, ‘Sabrina, cosas de brujas’).

Ficha técnica

Video trailer de la película

Enlaces de descarga

Rip de Bluray

Descargar Generation Kill (2008) Mini Serie REMUX 1080p Latino – CMHDD


Aportes de DPeliculasHDmega la pass es:dpeliculashdmega.org Aportes de CinemaniaHD la pass es:cinemaniahdd.com

Películas relacionadas

  • Togo (2022) NF WEB-DL 1080p Latino

    Togo (2022) NF WEB-DL 1080p Latino

    2022
    Togo (2022) NF WEB-DL 1080p Latino

    1h 35m 2022

    Descargar Togo (2022) NF WEB-DL 1080p Latino. Los narcos de poca monta están copando las calles de Montevideo...

    Director: Adrián Caetano

    Género: Crimen

    Actores: Tito Prieto

  • Star Wars: Andor (2022) Temporada 1 WEB-DL 1080p Latino

    Star Wars: Andor (2022) Temporada 1 WEB-DL 1080p Latino

    2022
    Star Wars: Andor (2022) Temporada 1 WEB-DL 1080p Latino

    0h 0m 2022

    Descargar Star Wars: Andor (2022) Temporada 1 WEB-DL 1080p Latino. Serie precuela de 'Star Wars; Rogue...

    Director: Tony Gilroy

    Género: Action & Adventure

    Actores: Stellan Skarsgård

  • El Ultimo Juego (2021) WEB-DL 1080p Latino

    El Ultimo Juego (2021) WEB-DL 1080p Latino

    2021
    El Ultimo Juego (2021) WEB-DL 1080p Latino

    1h 21m 2021

    Descargar El Ultimo Juego (2021) WEB-DL 1080p Latino. 6 extraños se despiertan dentro de una habitación...

    Director: John David Moffat IV

    Género: Drama

    Actores: Yasmin Irvine

descargar Generation Kill (2008) Mini Serie REMUX 1080p Latino – CMHDD Full 1080p 1080p gratis, Generation Kill (2008) Mini Serie REMUX 1080p Latino – CMHDD Full 1080p mega 1 link, Generation Kill (2008) Mini Serie REMUX 1080p Latino – CMHDD Full 1080p pelicula completa, descargar Generation Kill (2008) Mini Serie REMUX 1080p Latino – CMHDD Full 1080p gratis en mega.

Generation Kill (2008) Mini Serie REMUX 1080p Latino – CMHDD pelicula full hd, Generation Kill (2008) Mini Serie REMUX 1080p Latino – CMHDD mega latino, Generation Kill (2008) Mini Serie REMUX 1080p Latino – CMHDD 4k latino, Generation Kill (2008) Mini Serie REMUX 1080p Latino – CMHDD pelicula completa, Generation Kill (2008) Mini Serie REMUX 1080p Latino – CMHDD descargar gratis, descargar Generation Kill (2008) Mini Serie REMUX 1080p Latino – CMHDD pelicula latino, Generation Kill (2008) Mini Serie REMUX 1080p Latino – CMHDD 1 link mega, Generation Kill (2008) Mini Serie REMUX 1080p Latino – CMHDD 1 link google drive, Generation Kill (2008) Mini Serie REMUX 1080p Latino – CMHDD hd 1080p latino.
Comentarios 0