×

¿Problemas para descargar con Mozilla, EDGE? Deshabilita la opción "Abrir vinculos en una pestaña nueva" tal como lo muestra ésta imagen.

Gen V (2023) Primera Temporada AMZN WEB-DL 1080p Latino

276 vistas

Información de Gen V (2023) Primera Temporada AMZN WEB-DL 1080p Latino

Datos de la película

  • Calidad: 1080p
  • Audio: Español Latino AC3 5.1 WEB-DL - Ingles AC3 5.1 WEB-DL
  • Subtitulos: Español Latino SRT- FORZADOS SRT
  • Resolución: 1920x1080
  • Formato: MKV
  • Codec: H.264
  • Encoder: cinemaniahdd
  • Mediainfo: Clic para Mostrar Datos Ver
  • Gen V T01E01 AMZN WEB-DL 1080p Latino [CNMNHDD].mkv
    Format                      : Matroska
    Format version              : Version 4
    File size                   : 4.27 GiB
    Duration                    : 58 min 45 s
    Overall bit rate            : 10.4 Mb/s
    Movie name                  : Gen V S01E01 - God U. [1080p] - CinemaniaHDD.Net
    Encoded date                : UTC 2023-09-29 00:13:08
    Writing application         : mkvmerge v56.1.0 ('My Friend') 64-bit
    Writing library             : libebml v1.4.2 + libmatroska v1.6.4

    Video
    ID                          : 1
    Format                      : AVC
    Format/Info                 : Advanced Video Codec
    Format profile              : High@L4
    Format settings             : CABAC / 4 Ref Frames
    Format settings, CABAC      : Yes
    Format settings, Reference  : 4 frames
    Codec ID                    : V_MPEG4/ISO/AVC
    Duration                    : 58 min 45 s
    Bit rate mode               : Constant
    Bit rate                    : 8 472 kb/s
    Nominal bit rate            : 10 000 kb/s
    Width                       : 1 920 pixels
    Height                      : 800 pixels
    Display aspect ratio        : 2.40:1
    Frame rate mode             : Constant
    Frame rate                  : 23.976 (24000/1001) FPS
    Color space                 : YUV
    Chroma subsampling          : 4:2:0
    Bit depth                   : 8 bits
    Scan type                   : Progressive
    Bits/(Pixel*Frame)          : 0.230
    Stream size                 : 3.48 GiB (82%)
    Title                       : CinemaniaHDD
    Default                     : Yes
    Forced                      : No
    Color range                 : Limited
    Color primaries             : BT.709
    Transfer characteristics    : BT.709
    Matrix coefficients         : BT.709

    Audio #1
    ID                          : 2
    Format                      : AC-3
    Format/Info                 : Audio Coding 3
    Commercial name             : Dolby Digital
    Codec ID                    : A_AC3
    Duration                    : 58 min 45 s
    Bit rate mode               : Constant
    Bit rate                    : 640 kb/s
    Channel(s)                  : 6 channels
    Channel layout              : L R C LFE Ls Rs
    Sampling rate               : 48.0 kHz
    Frame rate                  : 31.250 FPS (1536 SPF)
    Compression mode            : Lossy
    Stream size                 : 269 MiB (6%)
    Title                       : Español Latino [CinemaniaHDD]
    Language                    : Spanish
    Service kind                : Complete Main
    Default                     : Yes
    Forced                      : No

    Audio #2
    ID                          : 3
    Format                      : E-AC-3
    Format/Info                 : Enhanced AC-3
    Commercial name             : Dolby Digital Plus
    Codec ID                    : A_EAC3
    Duration                    : 58 min 45 s
    Bit rate mode               : Constant
    Bit rate                    : 640 kb/s
    Channel(s)                  : 6 channels
    Channel layout              : L R C LFE Ls Rs
    Sampling rate               : 48.0 kHz
    Frame rate                  : 31.250 FPS (1536 SPF)
    Compression mode            : Lossy
    Stream size                 : 269 MiB (6%)
    Title                       : Español latino / E-AC3 [CinemaniaHDD]
    Language                    : Spanish
    Service kind                : Complete Main
    Default                     : No
    Forced                      : No

    Audio #3
    ID                          : 4
    Format                      : E-AC-3
    Format/Info                 : Enhanced AC-3
    Commercial name             : Dolby Digital Plus
    Codec ID                    : A_EAC3
    Duration                    : 58 min 45 s
    Bit rate mode               : Constant
    Bit rate                    : 640 kb/s
    Channel(s)                  : 6 channels
    Channel layout              : L R C LFE Ls Rs
    Sampling rate               : 48.0 kHz
    Frame rate                  : 31.250 FPS (1536 SPF)
    Compression mode            : Lossy
    Stream size                 : 269 MiB (6%)
    Title                       : Inglés [CinemaniaHDD]
    Language                    : English
    Service kind                : Complete Main
    Default                     : No
    Forced                      : No

    Text #1
    ID                          : 5
    Format                      : UTF-8
    Codec ID                    : S_TEXT/UTF8
    Codec ID/Info               : UTF-8 Plain Text
    Duration                    : 51 min 36 s
    Bit rate                    : 3 b/s
    Count of elements           : 37
    Stream size                 : 1.14 KiB (0%)
    Title                       : Forzados [CinemaniaHDD]
    Language                    : Spanish
    Default                     : Yes
    Forced                      : Yes

    Text #2
    ID                          : 6
    Format                      : UTF-8
    Codec ID                    : S_TEXT/UTF8
    Codec ID/Info               : UTF-8 Plain Text
    Duration                    : 54 min 58 s
    Bit rate                    : 52 b/s
    Count of elements           : 590
    Stream size                 : 20.9 KiB (0%)
    Title                       : Español Latino [CinemaniaHDD]
    Language                    : Spanish
    Default                     : No
    Forced                      : No

    Text #3
    ID                          : 7
    Format                      : UTF-8
    Codec ID                    : S_TEXT/UTF8
    Codec ID/Info               : UTF-8 Plain Text
    Duration                    : 55 min 0 s
    Bit rate                    : 85 b/s
    Count of elements           : 1258
    Stream size                 : 34.4 KiB (0%)
    Title                       : Inglés [CinemaniaHDD]
    Language                    : English
    Default                     : No
    Forced                      : No

     

  • Peso: 4.27 GiB Aprox ---- 27 GiB in 8 Chapters.

Sinopsis

Del mundo de The Boys, llega Gen V, una excitante nueva serie ubicada en la única universidad estadounidense para superhéroes. Los alumnos prueban sus límites morales al competir por los primeros puestos y por la chance de unirse a Los Seven, el grupo de superhéroes de elite de Vought International. Cuando surgen los secretos más oscuros de la escuela, deben decidir qué tipo de héroes quieren ser.

Ficha técnica

Video trailer de la película

Enlaces de descarga

Rip de Bluray

Descargar Gen V (2023) Primera Temporada AMZN WEB-DL 1080p Latino




Aportes de DPeliculasHDmega la pass es:dpeliculashdmega.org Aportes de CinemaniaHD la pass es:cinemaniahdd.com Aportes recientes:cinemaniahdd.net

Películas relacionadas

descargar Gen V (2023) Primera Temporada AMZN WEB-DL 1080p Latino 1080p 1080p gratis, Gen V (2023) Primera Temporada AMZN WEB-DL 1080p Latino 1080p mega 1 link, Gen V (2023) Primera Temporada AMZN WEB-DL 1080p Latino 1080p serie completa, descargar Gen V (2023) Primera Temporada AMZN WEB-DL 1080p Latino 1080p gratis en mega.

Gen V (2023) Primera Temporada AMZN WEB-DL 1080p Latino pelicula full hd, Gen V (2023) Primera Temporada AMZN WEB-DL 1080p Latino mega latino, Gen V (2023) Primera Temporada AMZN WEB-DL 1080p Latino 4k latino, Gen V (2023) Primera Temporada AMZN WEB-DL 1080p Latino pelicula completa, Gen V (2023) Primera Temporada AMZN WEB-DL 1080p Latino descargar gratis, descargar Gen V (2023) Primera Temporada AMZN WEB-DL 1080p Latino pelicula latino, Gen V (2023) Primera Temporada AMZN WEB-DL 1080p Latino 1 link mega, Gen V (2023) Primera Temporada AMZN WEB-DL 1080p Latino 1 link google drive, Gen V (2023) Primera Temporada AMZN WEB-DL 1080p Latino hd 1080p latino.
Comentarios 0