×

¿Problemas para descargar con Mozilla, EDGE? Deshabilita la opción "Abrir vinculos en una pestaña nueva" tal como lo muestra ésta imagen.

Géminis: El planeta oscuro (2022) REMUX 1080p Latino

323 vistas

Información de Géminis: El planeta oscuro (2022) REMUX 1080p Latino

Datos de la película

  • Calidad: Full 1080p
  • Audio: Español Latino AC3 5.1 WEB-DL - Ingles DTS 5.1 BLURAY
  • Subtitulos: Español Latino SRT- FORZADOS SRT
  • Resolución: 1920x1080p
  • Formato: MKV
  • Codec: H.264
  • Encoder: Melkor
  • Mediainfo: Clic para Mostrar Datos Ver
  • Géminis. El Planeta Oscuro (2022) REMUX 1080p Latino.mkv
    Format                      : Matroska
    Format version              : Version 4
    File size                   : 17.8 GiB
    Duration                    : 1 h 38 min
    Overall bit rate mode       : Variable
    Overall bit rate            : 26.0 Mb/s
    Movie name                  : Project Gemini (2022) [Zvyozdniy razum] CinemaniaHDD.Net
    Encoded date                : UTC 2023-03-31 04:52:31
    Writing application         : mkvmerge v56.1.0 ('My Friend') 64-bit
    Writing library             : libebml v1.4.2 + libmatroska v1.6.4
    Attachments                 : CINEMANIAHD.png
    Site                        : CinemaniaHDD.Net
    Uploader                    : Melkor

    Video
    ID                          : 1
    Format                      : AVC
    Format/Info                 : Advanced Video Codec
    Format profile              : High@L4.1
    Format settings             : CABAC / 4 Ref Frames
    Format settings, CABAC      : Yes
    Format settings, Reference  : 4 frames
    Codec ID                    : V_MPEG4/ISO/AVC
    Duration                    : 1 h 38 min
    Bit rate mode               : Variable
    Bit rate                    : 23.2 Mb/s
    Maximum bit rate            : 30.0 Mb/s
    Width                       : 1 920 pixels
    Height                      : 1 080 pixels
    Display aspect ratio        : 16:9
    Frame rate mode             : Constant
    Frame rate                  : 24.000 FPS
    Color space                 : YUV
    Chroma subsampling          : 4:2:0
    Bit depth                   : 8 bits
    Scan type                   : Progressive
    Bits/(Pixel*Frame)          : 0.466
    Stream size                 : 15.9 GiB (89%)
    Title                       : REMUX HD1080p [CinemaniaHDD]
    Default                     : Yes
    Forced                      : Yes

    Audio #1
    ID                          : 2
    Format                      : AC-3
    Format/Info                 : Audio Coding 3
    Commercial name             : Dolby Digital
    Codec ID                    : A_AC3
    Duration                    : 1 h 38 min
    Bit rate mode               : Constant
    Bit rate                    : 448 kb/s
    Channel(s)                  : 6 channels
    Channel layout              : L R C LFE Ls Rs
    Sampling rate               : 48.0 kHz
    Frame rate                  : 31.250 FPS (1536 SPF)
    Compression mode            : Lossy
    Stream size                 : 314 MiB (2%)
    Title                       : Español Latino [CinemaniaHDD]
    Language                    : Spanish
    Service kind                : Complete Main
    Default                     : Yes
    Forced                      : Yes

    Audio #2
    ID                          : 3
    Format                      : DTS XLL
    Format/Info                 : Digital Theater Systems
    Commercial name             : DTS-HD Master Audio
    Codec ID                    : A_DTS
    Duration                    : 1 h 38 min
    Bit rate mode               : Variable
    Bit rate                    : 2 365 kb/s
    Channel(s)                  : 6 channels
    Channel layout              : C L R Ls Rs LFE
    Sampling rate               : 48.0 kHz
    Frame rate                  : 93.750 FPS (512 SPF)
    Bit depth                   : 16 bits
    Compression mode            : Lossless
    Delay relative to video     : 41 ms
    Stream size                 : 1.62 GiB (9%)
    Title                       : Ingles [CinemaniaHDD]
    Language                    : English
    Default                     : No
    Forced                      : No

    Text #1
    ID                          : 4
    Format                      : UTF-8
    Codec ID                    : S_TEXT/UTF8
    Codec ID/Info               : UTF-8 Plain Text
    Duration                    : 1 h 15 min
    Bit rate                    : 0 b/s
    Count of elements           : 8
    Stream size                 : 154 Bytes (0%)
    Title                       : Forzados-SRT [CinemaniaHDD]
    Language                    : Spanish
    Default                     : Yes
    Forced                      : Yes

    Text #2
    ID                          : 5
    Format                      : UTF-8
    Codec ID                    : S_TEXT/UTF8
    Codec ID/Info               : UTF-8 Plain Text
    Duration                    : 1 h 33 min
    Bit rate                    : 41 b/s
    Count of elements           : 824
    Stream size                 : 28.5 KiB (0%)
    Title                       : Español-SRT [CinemaniaHDD]
    Language                    : Spanish
    Default                     : No
    Forced                      : No

    Text #3
    ID                          : 6
    Format                      : UTF-8
    Codec ID                    : S_TEXT/UTF8
    Codec ID/Info               : UTF-8 Plain Text
    Duration                    : 1 h 33 min
    Bit rate                    : 38 b/s
    Count of elements           : 966
    Stream size                 : 26.8 KiB (0%)
    Title                       : Ingles [CinemaniaHDD]
    Language                    : English
    Default                     : No
    Forced                      : No

    Menu
    00:00:00.000                : Chapter 01
    00:07:20.417                : Chapter 02
    00:15:21.542                : Chapter 03
    00:22:48.417                : Chapter 04
    00:30:05.167                : Chapter 05
    00:38:59.667                : Chapter 06
    00:52:01.875                : Chapter 07
    01:00:57.583                : Chapter 08
    01:09:50.083                : Chapter 09
    01:17:23.625                : Chapter 10
    01:26:22.792                : Chapter 11

  • Peso: 17.8 GiB

Sinopsis

Descargar Géminis: El planeta oscuro (2022) REMUX 1080p Latino. Una misión espacial es enviada para terraformar un planeta distante. Sin embargo, la misión se encuentra con algo desconocido que tiene su propio plan para el planeta.

Ficha técnica

Video trailer de la película

Enlaces de descarga

Rip de Bluray

Descargar Géminis: El planeta oscuro (2022) REMUX 1080p Latino




Aportes de DPeliculasHDmega la pass es:dpeliculashdmega.org Aportes de CinemaniaHD la pass es:cinemaniahdd.com Aportes recientes:cinemaniahdd.net
Guardado en : Horror , Remux , Science Fiction

Películas relacionadas

  • ¡Patos! (2023) REMUX 1080p Latino

    ¡Patos! (2023) REMUX 1080p Latino

    2023
    ¡Patos! (2023) REMUX 1080p Latino

    1h 23m 2023

    Descargar ¡Patos! (2023) REMUX 1080p Latino. Después de que una familia de patos migratorios aterriza...

    Director: Guy-Laurent Homsy

    Género: Acción

    Actores: Zeno Robinson

  • Guerra de Papás (2015) REMUX 1080p Latino-CMHDD

    Guerra de Papás (2015) REMUX 1080p Latino-CMHDD

    2015
    Guerra de Papás (2015) REMUX 1080p Latino-CMHDD

    1h 36m 2015

    Descargar Guerra de Papás (2015) REMUX 1080p Latino-CMHDD. Brad Taggart, un ejecutivo que acaba de casarse,...

    Director: Sean Anders

    Género: Comedia

    Actores: Zora Ngwaba

  • La Chica Danesa (2015) REMUX 1080p Latino-CMHDD

    La Chica Danesa (2015) REMUX 1080p Latino-CMHDD

    2015
    La Chica Danesa (2015) REMUX 1080p Latino-CMHDD

    2h 0m 2015

    Descargar La Chica Danesa (2015) REMUX 1080p Latino-CMHDD. Drama basado en la verdadera historia de una...

    Director: Tom Hooper

    Género: Drama

    Actores: Victoria Emslie

descargar Géminis: El planeta oscuro (2022) REMUX 1080p Latino Full 1080p 1080p gratis, Géminis: El planeta oscuro (2022) REMUX 1080p Latino Full 1080p mega 1 link, Géminis: El planeta oscuro (2022) REMUX 1080p Latino Full 1080p pelicula completa, descargar Géminis: El planeta oscuro (2022) REMUX 1080p Latino Full 1080p gratis en mega.

Géminis: El planeta oscuro (2022) REMUX 1080p Latino pelicula full hd, Géminis: El planeta oscuro (2022) REMUX 1080p Latino mega latino, Géminis: El planeta oscuro (2022) REMUX 1080p Latino 4k latino, Géminis: El planeta oscuro (2022) REMUX 1080p Latino pelicula completa, Géminis: El planeta oscuro (2022) REMUX 1080p Latino descargar gratis, descargar Géminis: El planeta oscuro (2022) REMUX 1080p Latino pelicula latino, Géminis: El planeta oscuro (2022) REMUX 1080p Latino 1 link mega, Géminis: El planeta oscuro (2022) REMUX 1080p Latino 1 link google drive, Géminis: El planeta oscuro (2022) REMUX 1080p Latino hd 1080p latino.
Comentarios 0