×

¿Problemas para descargar con Mozilla, EDGE? Deshabilita la opción "Abrir vinculos en una pestaña nueva" tal como lo muestra ésta imagen.

Proyecto Géminis (2019) REMUX 1080p Latino

2.059 vistas

Información de Proyecto Géminis (2019) REMUX 1080p Latino

Datos de la película

  • Calidad: Full 1080p
  • Audio: Se especifica abajo de la Sinopsis
  • Subtitulos: Español Latino PGS - Ingles PGS
  • Resolución: 1920x1080p
  • Formato: MKV
  • Codec: H.264
  • Encoder: CinefiloCool
  • Mediainfo: Clic para Mostrar Datos Ver
  • Proyecto Geminis (2019) REMUX 1080p Latino-CMHDD.mkv
    Format                      : Matroska
    Format version              : Version 4
    File size                   : 27.4 GiB
    Duration                    : 1 h 57 min
    Overall bit rate mode       : Variable
    Overall bit rate            : 33.6 Mb/s
    Movie name                  : CinemaniaHDD.Net
    Encoded date                : UTC 2020-01-03 04:56:57
    Writing application         : mkvmerge v38.0.0 ('The Silent Type') 64-bit
    Writing library             : libebml v1.3.9 + libmatroska v1.5.2
    Attachments                 : CINEMANIAHD.png

    Video
    ID                          : 1
    Format                      : AVC
    Format/Info                 : Advanced Video Codec
    Format profile              : High@L4.1
    Format settings             : CABAC / 4 Ref Frames
    Format settings, CABAC      : Yes
    Format settings, ReFrames   : 4 frames
    Codec ID                    : V_MPEG4/ISO/AVC
    Duration                    : 1 h 57 min
    Bit rate mode               : Variable
    Bit rate                    : 27.1 Mb/s
    Maximum bit rate            : 30.2 Mb/s
    Width                       : 1 920 pixels
    Height                      : 1 080 pixels
    Display aspect ratio        : 16:9
    Frame rate mode             : Constant
    Frame rate                  : 23.976 (24000/1001) FPS
    Color space                 : YUV
    Chroma subsampling          : 4:2:0
    Bit depth                   : 8 bits
    Scan type                   : Progressive
    Bits/(Pixel*Frame)          : 0.546
    Stream size                 : 22.2 GiB (81%)
    Title                       : Full HD1080p [REMUX]
    Default                     : Yes
    Forced                      : Yes

    Audio #1
    ID                          : 2
    Format                      : AC-3
    Format/Info                 : Audio Coding 3
    Commercial name             : Dolby Digital
    Codec ID                    : A_AC3
    Duration                    : 1 h 57 min
    Bit rate mode               : Constant
    Bit rate                    : 640 kb/s
    Channel(s)                  : 6 channels
    Channel layout              : L R C LFE Ls Rs
    Sampling rate               : 48.0 kHz
    Frame rate                  : 31.250 FPS (1536 SPF)
    Bit depth                   : 16 bits
    Compression mode            : Lossy
    Delay relative to video     : 23 ms
    Stream size                 : 536 MiB (2%)
    Title                       : AC3_5.1_Bluray_Esp
    Language                    : Spanish
    Service kind                : Complete Main
    Default                     : Yes
    Forced                      : Yes

    Audio #2
    ID                          : 3
    Format                      : MLP FBA 16-ch
    Format/Info                 : Meridian Lossless Packing FBA with 16-channel presentation
    Commercial name             : Dolby TrueHD with Dolby Atmos
    Codec ID                    : A_TRUEHD
    Duration                    : 1 h 57 min
    Bit rate mode               : Variable
    Bit rate                    : 4 205 kb/s
    Maximum bit rate            : 7 944 kb/s
    Channel(s)                  : 8 channels
    Channel layout              : L R C LFE Ls Rs Lb Rb
    Sampling rate               : 48.0 kHz
    Frame rate                  : 1 200.000 FPS (40 SPF)
    Compression mode            : Lossless
    Stream size                 : 3.44 GiB (13%)
    Title                       : THD_7.1_Bluray_Eng
    Language                    : English
    Default                     : No
    Forced                      : No
    Number of dynamic objects   : 11
    Bed channel count           : 1 channel
    Bed channel configuration   : LFE

    Audio #3
    ID                          : 4
    Format                      : DTS
    Format/Info                 : Digital Theater Systems
    Codec ID                    : A_DTS
    Duration                    : 1 h 57 min
    Bit rate mode               : Constant
    Bit rate                    : 1 509 kb/s
    Channel(s)                  : 6 channels
    Channel layout              : C L R Ls Rs LFE
    Sampling rate               : 48.0 kHz
    Frame rate                  : 93.750 FPS (512 SPF)
    Bit depth                   : 24 bits
    Compression mode            : Lossy
    Delay relative to video     : -9 ms
    Stream size                 : 1.23 GiB (4%)
    Title                       : DTS_5.1_Bluray_Eng
    Language                    : English
    Default                     : No
    Forced                      : No

    Text #1
    ID                          : 5
    Format                      : PGS
    Muxing mode                 : zlib
    Codec ID                    : S_HDMV/PGS
    Codec ID/Info               : Picture based subtitle format used on BDs/HD-DVDs
    Duration                    : 1 h 55 min
    Bit rate                    : 215 b/s
    Count of elements           : 22
    Stream size                 : 183 KiB (0%)
    Title                       : Sub_Forzados [PGS]
    Language                    : Spanish
    Default                     : Yes
    Forced                      : Yes

    Text #2
    ID                          : 6
    Format                      : PGS
    Muxing mode                 : zlib
    Codec ID                    : S_HDMV/PGS
    Codec ID/Info               : Picture based subtitle format used on BDs/HD-DVDs
    Duration                    : 1 h 55 min
    Bit rate                    : 30.6 kb/s
    Count of elements           : 2668
    Stream size                 : 25.3 MiB (0%)
    Title                       : Sub_Esp [PGS]
    Language                    : Spanish
    Default                     : No
    Forced                      : No

    Text #3
    ID                          : 7
    Format                      : PGS
    Muxing mode                 : zlib
    Codec ID                    : S_HDMV/PGS
    Codec ID/Info               : Picture based subtitle format used on BDs/HD-DVDs
    Duration                    : 1 h 45 min
    Bit rate                    : 34.6 kb/s
    Count of elements           : 2642
    Stream size                 : 26.1 MiB (0%)
    Title                       : Sub_Eng [PGS]
    Language                    : English
    Default                     : No
    Forced                      : No

    Text #4
    ID                          : 8
    Format                      : UTF-8
    Codec ID                    : S_TEXT/UTF8
    Codec ID/Info               : UTF-8 Plain Text
    Duration                    : 1 h 47 min
    Bit rate                    : 0 b/s
    Count of elements           : 10
    Stream size                 : 204 Bytes (0%)
    Title                       : Sub_Forzados
    Language                    : Spanish
    Default                     : No
    Forced                      : No

    Text #5
    ID                          : 9
    Format                      : UTF-8
    Codec ID                    : S_TEXT/UTF8
    Codec ID/Info               : UTF-8 Plain Text
    Duration                    : 1 h 47 min
    Bit rate                    : 48 b/s
    Count of elements           : 1331
    Stream size                 : 38.0 KiB (0%)
    Title                       : Sub_Esp
    Language                    : Spanish
    Default                     : No
    Forced                      : No

    Menu
    00:00:00.000                : :Chapter 01
    00:07:21.649                : :Chapter 02
    00:15:31.680                : :Chapter 03
    00:18:13.133                : :Chapter 04
    00:24:39.519                : :Chapter 05
    00:30:59.440                : :Chapter 06
    00:34:09.464                : :Chapter 07
    00:42:40.307                : :Chapter 08
    00:50:24.896                : :Chapter 09
    00:56:45.819                : :Chapter 10
    01:03:30.306                : :Chapter 11
    01:08:13.172                : :Chapter 12
    01:16:45.934                : :Chapter 13
    01:24:43.995                : :Chapter 14
    01:30:04.732                : :Chapter 15
    01:34:00.926                : :Chapter 16
    01:42:14.461                : :Chapter 17
    01:47:07.587                : :Chapter 18

  • Peso: 27.4 GiB

Sinopsis

Descargar Proyecto Géminis (2019) REMUX 1080p Latino. Henry Brogan, un asesino a sueldo ya demasiado mayor para seguir con su duro trabajo, decide retirarse. Pero esto no le va a resultar tan fácil, pues tendrá que enfrentarse a un clon suyo, mucho más joven.

Audio Español Latino AC3 5.1 Bluray – Ingles TrueHD 7.1 + DTS 5.1 Bluray

Ficha técnica

  • Titulo original: Gemini Man
  • Fecha de lanzamiento: 02-10-2019 (China, United States of America)
  • Director: Ang Lee
  • Género: Acción, Remux, Suspenso

Video trailer de la película

Enlaces de descarga

Rip de Bluray

Descargar Proyecto Géminis (2019) REMUX 1080p Latino




Aportes de DPeliculasHDmega la pass es:dpeliculashdmega.org Aportes de CinemaniaHD la pass es:cinemaniahdd.com Aportes recientes:cinemaniahdd.net
Guardado en : Acción , Remux , Suspenso

Películas relacionadas

  • Los infalibles (2024) AMZN WEB-DL 1080p Latino

    Los infalibles (2024) AMZN WEB-DL 1080p Latino

    2024
    Los infalibles (2024) AMZN WEB-DL 1080p Latino

    1h 39m 2024

    Cuando un grupo de ladrones provoca el caos en París y ridiculiza a la policía, el Ministro del Interior...

    Director: Frédéric Forestier

    Género: Acción

    Actores: Vincent Rottiers

  • Ghostbusters: El Legado (2021) REMUX 1080p Latino

    Ghostbusters: El Legado (2021) REMUX 1080p Latino

    2021
    Ghostbusters: El Legado (2021) REMUX 1080p Latino

    2h 4m 2021

    Descargar Ghostbusters: El Legado (2021) REMUX 1080p Latino. Una madre soltera y sus dos hijos se van...

    Director: Jason Reitman

    Género: Aventura

    Actores: Tracy Letts

  • El Ministerio de la Guerra (2024) HD 1080p Latino

    El Ministerio de la Guerra (2024) HD 1080p Latino

    2024
    El Ministerio de la Guerra (2024) HD 1080p Latino

    2h 0m 2024

    Descargar El Ministerio de la Guerra (2024) HD 1080p Latino.  El ejército británico recluta a un pequeño...

    Director: Guy Ritchie

    Género: Acción

    Actores: Til Schweiger

descargar Proyecto Géminis (2019) REMUX 1080p Latino Full 1080p 1080p gratis, Proyecto Géminis (2019) REMUX 1080p Latino Full 1080p mega 1 link, Proyecto Géminis (2019) REMUX 1080p Latino Full 1080p pelicula completa, descargar Proyecto Géminis (2019) REMUX 1080p Latino Full 1080p gratis en mega.

Proyecto Géminis (2019) REMUX 1080p Latino pelicula full hd, Proyecto Géminis (2019) REMUX 1080p Latino mega latino, Proyecto Géminis (2019) REMUX 1080p Latino 4k latino, Proyecto Géminis (2019) REMUX 1080p Latino pelicula completa, Proyecto Géminis (2019) REMUX 1080p Latino descargar gratis, descargar Proyecto Géminis (2019) REMUX 1080p Latino pelicula latino, Proyecto Géminis (2019) REMUX 1080p Latino 1 link mega, Proyecto Géminis (2019) REMUX 1080p Latino 1 link google drive, Proyecto Géminis (2019) REMUX 1080p Latino hd 1080p latino.
Comentarios 1