×

¿Problemas para descargar con Mozilla, EDGE? Deshabilita la opción "Abrir vinculos en una pestaña nueva" tal como lo muestra ésta imagen.

Gangsterdam (2017) WEB-DL 1080p Latino

751 vistas

Información de Gangsterdam (2017) WEB-DL 1080p Latino

Datos de la película

  • Calidad: WEBDL
  • Audio: Se especifica abajo de la Sinopsis
  • Subtitulos: Español Latino SRT- FORZADOS SRT
  • Resolución: 1920x1080
  • Formato: MKV
  • Codec: H.264
  • Encoder: cinemaniahdd
  • Mediainfo: Clic para Mostrar Datos Ver
  • Gangsterdam (2017) WEB-DL 1080p Latino.mkv
    Format                      : Matroska
    Format version              : Version 4
    File size                   : 3.42 GiB
    Duration                    : 1 h 33 min
    Overall bit rate            : 5 223 kb/s
    Movie name                  : Gangsterdam (2017) - CinemaniaHDD.Net
    Encoded date                : UTC 2020-03-31 02:02:50
    Writing application         : mkvmerge v42.0.0 ('Overtime') 64-bit
    Writing library             : libebml v1.3.10 + libmatroska v1.5.2

    Video
    ID                          : 1
    Format                      : AVC
    Format/Info                 : Advanced Video Codec
    Format profile              : High@L4
    Format settings             : CABAC / 2 Ref Frames
    Format settings, CABAC      : Yes
    Format settings, ReFrames   : 2 frames
    Codec ID                    : V_MPEG4/ISO/AVC
    Duration                    : 1 h 33 min
    Bit rate                    : 5 000 kb/s
    Width                       : 1 920 pixels
    Height                      : 1 080 pixels
    Display aspect ratio        : 16:9
    Frame rate mode             : Constant
    Frame rate                  : 29.970 FPS
    Color space                 : YUV
    Chroma subsampling          : 4:2:0
    Bit depth                   : 8 bits
    Scan type                   : Progressive
    Bits/(Pixel*Frame)          : 0.080
    Stream size                 : 3.25 GiB (95%)
    Title                       : CinemaniaHDD
    Writing library             : x264 core 148 r2579M 73ae2d1
    Encoding settings           : cabac=1 / ref=2 / deblock=1:0:0 / analyse=0x3:0x113 / me=hex / subme=2 / psy=1 / psy_rd=1.00:0.00 / mixed_ref=0 / me_range=16 / chroma_me=1 / trellis=0 / 8x8dct=1 / cqm=0 / deadzone=21,11 / fast_pskip=1 / chroma_qp_offset=0 / threads=4 / lookahead_threads=1 / sliced_threads=0 / nr=250 / decimate=1 / interlaced=0 / bluray_compat=0 / stitchable=1 / constrained_intra=0 / bframes=0 / weightp=1 / keyint=250 / keyint_min=25 / scenecut=40 / intra_refresh=0 / rc_lookahead=10 / rc=2pass / mbtree=1 / bitrate=5000 / ratetol=1.0 / qcomp=0.60 / qpmin=5 / qpmax=69 / qpstep=4 / cplxblur=20.0 / qblur=0.5 / vbv_maxrate=10000 / vbv_bufsize=5000 / nal_hrd=none / filler=0 / ip_ratio=1.40 / aq=1:1.00
    Language                    : English
    Default                     : Yes
    Forced                      : No
    Color range                 : Limited
    Color primaries             : BT.709
    Transfer characteristics    : BT.709
    Matrix coefficients         : BT.709

    Audio #1
    ID                          : 2
    Format                      : AAC LC SBR
    Format/Info                 : Advanced Audio Codec Low Complexity with Spectral Band Replication
    Commercial name             : HE-AAC
    Format settings             : Explicit
    Codec ID                    : A_AAC-2
    Duration                    : 1 h 33 min
    Bit rate                    : 127 kb/s
    Channel(s)                  : 2 channels
    Channel layout              : L R
    Sampling rate               : 48.0 kHz
    Frame rate                  : 23.438 FPS (2048 SPF)
    Compression mode            : Lossy
    Stream size                 : 84.9 MiB (2%)
    Title                       : Español latino [CinemaniaHDD]
    Language                    : Spanish
    Default                     : Yes
    Forced                      : No

    Audio #2
    ID                          : 3
    Format                      : AAC LC SBR
    Format/Info                 : Advanced Audio Codec Low Complexity with Spectral Band Replication
    Commercial name             : HE-AAC
    Format settings             : Explicit
    Codec ID                    : A_AAC-2
    Duration                    : 1 h 33 min
    Bit rate                    : 127 kb/s
    Channel(s)                  : 2 channels
    Channel layout              : L R
    Sampling rate               : 48.0 kHz
    Frame rate                  : 23.438 FPS (2048 SPF)
    Compression mode            : Lossy
    Stream size                 : 84.9 MiB (2%)
    Title                       : Francés [CinemaniaHDD]
    Language                    : French
    Default                     : No
    Forced                      : No

    Text #1
    ID                          : 4
    Format                      : UTF-8
    Codec ID                    : S_TEXT/UTF8
    Codec ID/Info               : UTF-8 Plain Text
    Duration                    : 1 h 9 min
    Bit rate                    : 0 b/s
    Count of elements           : 13
    Stream size                 : 434 Bytes (0%)
    Title                       : Forzados [CinemaniaHDD]
    Language                    : Spanish
    Default                     : Yes
    Forced                      : Yes

    Text #2
    ID                          : 5
    Format                      : UTF-8
    Codec ID                    : S_TEXT/UTF8
    Codec ID/Info               : UTF-8 Plain Text
    Duration                    : 1 h 31 min
    Bit rate                    : 62 b/s
    Count of elements           : 1431
    Stream size                 : 41.8 KiB (0%)
    Title                       : Español latino [CinemaniaHDD]
    Language                    : Spanish
    Default                     : No
    Forced                      : No

     

  • Peso: 3.42 GiB

Sinopsis

Ruben, Durex y Nora son tres estudiantes en su último año de universidad. Rubén ya ha reprobado sus exámenes una vez debido a su falta de confianza en sí mismo. Ha sido tan inútil con Nora, a quien no se atreve a confesar sus sentimientos. Y su amigo de la infancia, Durex, el chico más vergonzoso del mundo, no es de ninguna ayuda. Cuando Ruben descubre que Nora es un traficante y que irá a Ámsterdam para traer un nuevo tipo de droga, Ruben tiene el coraje de acompañarla. Este viaje a Amsterdam es una situación ideal para seducir a Nora. Pero su mala suerte: Durex viene para el viaje. Mientras el trío descubre la capital más loca de Europa, sus vidas realmente se complican cuando se dan cuenta de que la droga que acaban de comprar pertenece a uno de los gángsters más peligrosos de Ámsterdam. Muy rápidamente, Ruben, Durex y Nora entenderán que para recuperar sus viejas vidas, deben dejar de ser nerds para convertirse en verdaderos héroes.

Español Latino 2.0 WEB-DL – Frances 2.0 WEB-DL

Ficha técnica

Video trailer de la película

Enlaces de descarga

Rip de Bluray

Descargar Gangsterdam (2017) WEB-DL 1080p Latino




Aportes de DPeliculasHDmega la pass es:dpeliculashdmega.org Aportes de CinemaniaHD la pass es:cinemaniahdd.com
Guardado en : Acción , Comedia

Películas relacionadas

descargar Gangsterdam (2017) WEB-DL 1080p Latino WEBDL 1080p gratis, Gangsterdam (2017) WEB-DL 1080p Latino WEBDL mega 1 link, Gangsterdam (2017) WEB-DL 1080p Latino WEBDL pelicula completa, descargar Gangsterdam (2017) WEB-DL 1080p Latino WEBDL gratis en mega.

Gangsterdam (2017) WEB-DL 1080p Latino pelicula full hd, Gangsterdam (2017) WEB-DL 1080p Latino mega latino, Gangsterdam (2017) WEB-DL 1080p Latino 4k latino, Gangsterdam (2017) WEB-DL 1080p Latino pelicula completa, Gangsterdam (2017) WEB-DL 1080p Latino descargar gratis, descargar Gangsterdam (2017) WEB-DL 1080p Latino pelicula latino, Gangsterdam (2017) WEB-DL 1080p Latino 1 link mega, Gangsterdam (2017) WEB-DL 1080p Latino 1 link google drive, Gangsterdam (2017) WEB-DL 1080p Latino hd 1080p latino.
Comentarios 0