×

¿Problemas para descargar con Mozilla, EDGE? Deshabilita la opción "Abrir vinculos en una pestaña nueva" tal como lo muestra ésta imagen.

Fuerza antigángster (2013) REMUX 1080p Latino

145 vistas

Información de Fuerza antigángster (2013) REMUX 1080p Latino

Datos de la película

  • Calidad: Full 1080p
  • Audio: Español Latino AC3 5.1 BLURAY - Ingles DTS 5.1 BLURAY
  • Subtitulos: Español Latino PGS - Ingles PGS
  • Resolución: 1920x1080p
  • Formato: MKV
  • Codec: H.264
  • Encoder: CinefiloCool
  • Mediainfo: Clic para Mostrar Datos Ver
  • Fuerza Antigangster (2013) REMUX 1080p Latino-CMHDD.mkv
    Format                      : Matroska
    Format version              : Version 4
    File size                   : 18.6 GiB
    Duration                    : 1 h 52 min
    Overall bit rate mode       : Variable
    Overall bit rate            : 23.5 Mb/s
    Movie name                  : Gangster Squad (2013) CinemaniaHDD.Net
    Encoded date                : UTC 2021-09-15 07:08:17
    Writing application         : mkvmerge v56.1.0 ('My Friend') 64-bit
    Writing library             : libebml v1.4.2 + libmatroska v1.6.4
    Attachments                 : CINEMANIAHD.png

    Video
    ID                          : 1
    Format                      : AVC
    Format/Info                 : Advanced Video Codec
    Format profile              : High@L4.1
    Format settings             : CABAC / 2 Ref Frames
    Format settings, CABAC      : Yes
    Format settings, Reference  : 2 frames
    Codec ID                    : V_MPEG4/ISO/AVC
    Duration                    : 1 h 52 min
    Bit rate mode               : Variable
    Bit rate                    : 20.6 Mb/s
    Width                       : 1 920 pixels
    Height                      : 1 080 pixels
    Display aspect ratio        : 16:9
    Frame rate mode             : Constant
    Frame rate                  : 23.976 (24000/1001) FPS
    Color space                 : YUV
    Chroma subsampling          : 4:2:0
    Bit depth                   : 8 bits
    Scan type                   : Progressive
    Bits/(Pixel*Frame)          : 0.415
    Stream size                 : 16.3 GiB (88%)
    Title                       : REMUX HD1080p [CinemaniaHDD]
    Language                    : English
    Default                     : Yes
    Forced                      : Yes

    Audio #1
    ID                          : 2
    Format                      : AC-3
    Format/Info                 : Audio Coding 3
    Commercial name             : Dolby Digital
    Codec ID                    : A_AC3
    Duration                    : 1 h 52 min
    Bit rate mode               : Constant
    Bit rate                    : 640 kb/s
    Channel(s)                  : 6 channels
    Channel layout              : L R C LFE Ls Rs
    Sampling rate               : 48.0 kHz
    Frame rate                  : 31.250 FPS (1536 SPF)
    Compression mode            : Lossy
    Stream size                 : 517 MiB (3%)
    Title                       : Español Latino [CinemaniaHDD]
    Language                    : Spanish
    Service kind                : Complete Main
    Default                     : Yes
    Forced                      : Yes

    Audio #2
    ID                          : 3
    Format                      : DTS XLL
    Format/Info                 : Digital Theater Systems
    Commercial name             : DTS-HD Master Audio
    Codec ID                    : A_DTS
    Duration                    : 1 h 52 min
    Bit rate mode               : Variable
    Bit rate                    : 2 232 kb/s
    Channel(s)                  : 6 channels
    Channel layout              : C L R Ls Rs LFE
    Sampling rate               : 48.0 kHz
    Frame rate                  : 93.750 FPS (512 SPF)
    Bit depth                   : 16 bits
    Compression mode            : Lossless
    Stream size                 : 1.76 GiB (9%)
    Title                       : Ingles [CinemaniaHDD]
    Language                    : English
    Default                     : No
    Forced                      : No

    Text #1
    ID                          : 4
    Format                      : PGS
    Muxing mode                 : zlib
    Codec ID                    : S_HDMV/PGS
    Codec ID/Info               : Picture based subtitle format used on BDs/HD-DVDs
    Duration                    : 1 h 52 min
    Bit rate                    : 28.3 kb/s
    Count of elements           : 2656
    Stream size                 : 22.7 MiB (0%)
    Title                       : Español-PGS [CinemaniaHDD]
    Language                    : Spanish
    Default                     : No
    Forced                      : No

    Text #2
    ID                          : 5
    Format                      : PGS
    Muxing mode                 : zlib
    Codec ID                    : S_HDMV/PGS
    Codec ID/Info               : Picture based subtitle format used on BDs/HD-DVDs
    Duration                    : 1 h 52 min
    Bit rate                    : 32.2 kb/s
    Count of elements           : 2880
    Stream size                 : 25.9 MiB (0%)
    Title                       : Ingles-PGS [CinemaniaHDD]
    Language                    : English
    Default                     : No
    Forced                      : No

    Text #3
    ID                          : 6
    Format                      : UTF-8
    Codec ID                    : S_TEXT/UTF8
    Codec ID/Info               : UTF-8 Plain Text
    Duration                    : 1 h 30 min
    Bit rate                    : 0 b/s
    Count of elements           : 15
    Stream size                 : 365 Bytes (0%)
    Title                       : Forzados-SRT [CinemaniaHDD]
    Language                    : Spanish
    Default                     : Yes
    Forced                      : Yes

    Text #4
    ID                          : 7
    Format                      : UTF-8
    Codec ID                    : S_TEXT/UTF8
    Codec ID/Info               : UTF-8 Plain Text
    Duration                    : 1 h 52 min
    Bit rate                    : 53 b/s
    Count of elements           : 1327
    Stream size                 : 43.7 KiB (0%)
    Title                       : Español-SRT [CinemaniaHDD]
    Language                    : Spanish
    Default                     : No
    Forced                      : No

    Menu
    00:00:00.000                : 00:00:00.000
    00:09:53.635                : 00:09:53.635
    00:20:51.167                : 00:20:51.167
    00:28:36.173                : 00:28:36.173
    00:39:22.860                : 00:39:22.860
    00:49:25.462                : 00:49:25.462
    00:59:59.262                : 00:59:59.262
    01:09:23.493                : 01:09:23.493
    01:20:05.259                : 01:20:05.259
    01:31:01.539                : 01:31:01.539
    01:38:50.341                : 01:38:50.341
    01:44:11.370                : 01:44:11.370

  • Peso: 18.6 GiB

Sinopsis

Descargar Fuerza antigángster (2013) REMUX 1080p Latino. Los Angeles, 1949. Mickey Cohen (Sean Penn, ‘Mystic River’), originario de Brooklyn, se ha convertido en el gran jefe de la mafia que dirige la ciudad. Todos parece pasar por sus manos: drogas, armas, prostitutas, y cualquier material robado. Se encuentra absolutamente protegido por los miembros de su clan, que lo veneran como a su líder indiscutible, pero no solo eso, pues sus tentáculos van más allá de los bajos fondos: parte del cuerpo de policía y algunos miembros del sector político se encuentran bajo su influjo. Sin embargo, todavía hay hombres dentro de la brigada policial que no se dejan amedrentar por la corrupción. Es el caso de los sargentos John O’Mara (Josh Brolin, ‘No es país para viejos’) y Jerry Wooters (Ryan Gosling, ‘Drive’), que contra todo y contra todos, intentarán destruir el imperio del todopoderoso Cohen.

Disponible Solo Para VIP!!! 😀

Ficha técnica

Video trailer de la película

Enlaces de descarga

Rip de Bluray

Descargar Fuerza antigángster (2013) REMUX 1080p Latino


Aportes de DPeliculasHDmega la pass es:dpeliculashdmega.org Aportes de CinemaniaHD la pass es:cinemaniahdd.com
Guardado en : Acción , Crimen , Drama , Remux , Suspenso

Películas relacionadas

  • Ajin: Semi-Humano (2017) AMZN WEB-DL 1080p Latino

    Ajin: Semi-Humano (2017) AMZN WEB-DL 1080p Latino

    2017
    Ajin: Semi-Humano (2017) AMZN WEB-DL 1080p Latino

    1h 50m 2017

    Descargar Ajin: Semi-Humano (2017) AMZN WEB-DL 1080p Latino. En el manga original, aparece una persona...

    Director: Toru Yamamoto

    Género: Acción

    Actores: Yuki Yamada

  • Ajin: Semi-Humano (2017) REMUX 1080p Latino

    Ajin: Semi-Humano (2017) REMUX 1080p Latino

    2017
    Ajin: Semi-Humano (2017) REMUX 1080p Latino

    1h 50m 2017

    Descargar Ajin: Semi-Humano (2017) REMUX 1080p Latino. En el manga original, aparece una persona inmortal...

    Director: Toru Yamamoto

    Género: Acción

    Actores: Yuki Yamada

  • Zola (2020) HD 1080p Latino

    Zola (2020) HD 1080p Latino

    2020
    Zola (2020) HD 1080p Latino

    1h 26m 2020

    Descargar Zola (2020) HD 1080p Latino. Una camarera accede a acompañar a una bailarina exótica, su...

    Director: Sheri Davani

    Género: Comedia

    Actores: Ts Madison

descargar Fuerza antigángster (2013) REMUX 1080p Latino Full 1080p 1080p gratis, Fuerza antigángster (2013) REMUX 1080p Latino Full 1080p mega 1 link, Fuerza antigángster (2013) REMUX 1080p Latino Full 1080p pelicula completa, descargar Fuerza antigángster (2013) REMUX 1080p Latino Full 1080p gratis en mega.

Fuerza antigángster (2013) REMUX 1080p Latino pelicula full hd, Fuerza antigángster (2013) REMUX 1080p Latino mega latino, Fuerza antigángster (2013) REMUX 1080p Latino 4k latino, Fuerza antigángster (2013) REMUX 1080p Latino pelicula completa, Fuerza antigángster (2013) REMUX 1080p Latino descargar gratis, descargar Fuerza antigángster (2013) REMUX 1080p Latino pelicula latino, Fuerza antigángster (2013) REMUX 1080p Latino 1 link mega, Fuerza antigángster (2013) REMUX 1080p Latino 1 link google drive, Fuerza antigángster (2013) REMUX 1080p Latino hd 1080p latino.
Comentarios 0