Gangs of London (2020) Primera Temporada REMUX 1080p Latino – CMHDD

58 vistas
1 estrella2 estrellas3 estrellas4 estrellas5 estrellas (1 votos, promedio: 5,00 de 5)
Cargando...

Información de Gangs of London (2020) Primera Temporada REMUX 1080p Latino – CMHDD

Datos de la película

  • Calidad: Full 1080p
  • Audio: Se especifica abajo de la Sinopsis
  • Subtitulos: Español Latino SRT- FORZADOS SRT
  • Resolución: 1920x1080p
  • Formato: MKV
  • Codec: H.264
  • Encoder: Dracarys
  • Mediainfo: Clic para Mostrar Datos Ver
  • Format                      : Matroska
    Format version              : Version 4
    File size                   : 9.69 GiB
    Duration                    : 55 min 59 s
    Overall bit rate mode       : Variable
    Overall bit rate            : 24.8 Mb/s
    Movie name                  : Gangs of London (2020) [S01E02] REMUX 1080p Latino - CMHDD
    Encoded date                : UTC 2021-02-09 09:55:14
    Writing application         : mkvmerge v51.0.0 ('I Wish') 64-bit
    Writing library             : libebml v1.4.0 + libmatroska v1.6.2

    Video
    ID                          : 1
    Format                      : AVC
    Format/Info                 : Advanced Video Codec
    Format profile              : High@L4.1
    Format settings             : CABAC / 4 Ref Frames
    Format settings, CABAC      : Yes
    Format settings, Reference  : 4 frames
    Format settings, picture st : Frame
    Codec ID                    : V_MPEG4/ISO/AVC
    Duration                    : 55 min 59 s
    Bit rate mode               : Variable
    Bit rate                    : 20.6 Mb/s
    Maximum bit rate            : 38.0 Mb/s
    Width                       : 1 920 pixels
    Height                      : 1 080 pixels
    Display aspect ratio        : 16:9
    Frame rate mode             : Constant
    Frame rate                  : 25.000 FPS
    Color space                 : YUV
    Chroma subsampling          : 4:2:0
    Bit depth                   : 8 bits
    Scan type                   : Interlaced
    Scan type, store method     : Interleaved fields
    Scan order                  : Top Field First
    Bits/(Pixel*Frame)          : 0.397
    Stream size                 : 8.05 GiB (83%)
    Default                     : Yes
    Forced                      : No

    Audio #1
    ID                          : 2
    Format                      : AC-3
    Format/Info                 : Audio Coding 3
    Commercial name             : Dolby Digital
    Codec ID                    : A_AC3
    Duration                    : 55 min 59 s
    Bit rate mode               : Constant
    Bit rate                    : 640 kb/s
    Channel(s)                  : 6 channels
    Channel layout              : L R C LFE Ls Rs
    Sampling rate               : 48.0 kHz
    Frame rate                  : 31.250 FPS (1536 SPF)
    Compression mode            : Lossy
    Stream size                 : 256 MiB (3%)
    Language                    : Spanish
    Service kind                : Complete Main
    Default                     : Yes
    Forced                      : No

    Audio #2
    ID                          : 3
    Format                      : DTS XLL
    Format/Info                 : Digital Theater Systems
    Commercial name             : DTS-HD Master Audio
    Codec ID                    : A_DTS
    Duration                    : 55 min 58 s
    Bit rate mode               : Variable
    Bit rate                    : 3 535 kb/s
    Channel(s)                  : 6 channels
    Channel layout              : C L R Ls Rs LFE
    Sampling rate               : 48.0 kHz
    Frame rate                  : 93.750 FPS (512 SPF)
    Bit depth                   : 24 bits
    Compression mode            : Lossless
    Stream size                 : 1.38 GiB (14%)
    Language                    : English
    Default                     : No
    Forced                      : No

    Text #1
    ID                          : 4
    Format                      : UTF-8
    Codec ID                    : S_TEXT/UTF8
    Codec ID/Info               : UTF-8 Plain Text
    Duration                    : 38 min 24 s
    Bit rate                    : 7 b/s
    Count of elements           : 70
    Stream size                 : 2.10 KiB (0%)
    Title                       : FORZADOS
    Language                    : Spanish
    Default                     : Yes
    Forced                      : Yes

    Text #2
    ID                          : 5
    Format                      : UTF-8
    Codec ID                    : S_TEXT/UTF8
    Codec ID/Info               : UTF-8 Plain Text
    Duration                    : 55 min 28 s
    Bit rate                    : 37 b/s
    Count of elements           : 510
    Stream size                 : 15.4 KiB (0%)
    Title                       : COMPLETOS
    Language                    : Spanish
    Default                     : No
    Forced                      : No

  • Peso: 102 GiB Total

Sinopsis

Cuando el jefe de una organización criminal, Finn Wallace es asesinado, el repentino vacío de poder que crea su muerte amenaza la frágil paz entre la intrincada red de pandillas que operan en las calles de la ciudad. Ahora le corresponde al afligido, volátil e impulsivo Sean Wallace restablecer el control y encontrar a los responsables de matar a su padre.

 

Latino: AC3 5.1  –  Ingles: DTS-HD MA 5.1

Ficha técnica

Video trailer de la película

Enlaces de descarga

Rip de Bluray

Descargar Gangs of London (2020) Primera Temporada REMUX 1080p Latino – CMHDD


Aportes de DPeliculasHDmega la pass es:dpeliculashdmega.org Aportes de CinemaniaHD la pass es:cinemaniahdd.com
Guardado en : Crimen , Drama

Películas relacionadas

  • Sola (2020) HD 1080p Latino

    Sola (2020) HD 1080p Latino

    2020
    Sola (2020) HD 1080p Latino

    0.0 1h 40m 2020

    Descargar Sola (2020) HD 1080p Latino. Una mujer viuda que viaja sola es secuestrada por un asesino a...

    Director: John Hyams

    Género: Drama

    Actores: Shelly Lipkin

  • Sola (2020) REMUX 1080p Latino

    Sola (2020) REMUX 1080p Latino

    2020
    Sola (2020) REMUX 1080p Latino

    5.0 1h 40m 2020

    Descargar Sola (2020) REMUX 1080p Latino. Una mujer viuda que viaja sola es secuestrada por un asesino...

    Director: John Hyams

    Género: Drama

    Actores: Shelly Lipkin

  • La Red De Corrupcion (2019) HD 1080p Latino

    La Red De Corrupcion (2019) HD 1080p Latino

    2019
    La Red De Corrupcion (2019) HD 1080p Latino

    5.0 1h 45m 2019

    Descargar La Red De Corrupcion (2019) HD 1080p Latino. Con los Juegos Olímpicos de 2012 de Londres...

    Director: Ron Scalpello

    Género: Crimen

    Actores: Timothy Spall

  • La Red De Corrupcion (2019) REMUX 1080p Latino

    La Red De Corrupcion (2019) REMUX 1080p Latino

    2019
    La Red De Corrupcion (2019) REMUX 1080p Latino

    5.0 1h 45m 2019

    Descargar La Red De Corrupcion (2019) REMUX 1080p Latino. Con los Juegos Olímpicos de 2012 de Londres...

    Director: Ron Scalpello

    Género: Crimen

    Actores: Timothy Spall

  • Chop Chop (2020) AMZN WEB-DL 1080p Latino

    Chop Chop (2020) AMZN WEB-DL 1080p Latino

    2020
    Chop Chop (2020) AMZN WEB-DL 1080p Latino

    5.0 1h 21m 2020

    Una pareja se involucra con una banda de criminales endurecidos después de sobrevivir a un ataque de...

    Director: Rony Patel

    Género: Crimen

    Actores: Jake Taylor

Gangs of London (2020) Primera Temporada REMUX 1080p Latino – CMHDD pelicula full hd, Gangs of London (2020) Primera Temporada REMUX 1080p Latino – CMHDD mega latino, Gangs of London (2020) Primera Temporada REMUX 1080p Latino – CMHDD 4k latino, Gangs of London (2020) Primera Temporada REMUX 1080p Latino – CMHDD pelicula completa, Gangs of London (2020) Primera Temporada REMUX 1080p Latino – CMHDD descargar gratis, descargar Gangs of London (2020) Primera Temporada REMUX 1080p Latino – CMHDD pelicula latino, Gangs of London (2020) Primera Temporada REMUX 1080p Latino – CMHDD 1 link mega, Gangs of London (2020) Primera Temporada REMUX 1080p Latino – CMHDD 1 link google drive, Gangs of London (2020) Primera Temporada REMUX 1080p Latino – CMHDD hd 1080p latino.
Comentarios 0