×

¿Problemas para descargar con Mozilla, EDGE? Deshabilita la opción "Abrir vinculos en una pestaña nueva" tal como lo muestra ésta imagen.

G.I. Joe: El origen de Cobra (2009) REMUX 1080p Latino

125 vistas

Información de G.I. Joe: El origen de Cobra (2009) REMUX 1080p Latino

Datos de la película

  • Calidad: Full 1080p
  • Audio: Español Latino AC3 5.1 BLURAY - Ingles DTS 5.1 BLURAY
  • Subtitulos: Español Latino PGS - Ingles PGS
  • Resolución: 1920x1080p
  • Formato: MKV
  • Codec: H.264
  • Encoder: CinefiloCool
  • Mediainfo: Clic para Mostrar Datos Ver
  • G.I. Joe El origen de Cobra (2009) REMUX 1080p Latino-CMHDD.mkv
    Format                      : Matroska
    Format version              : Version 4
    File size                   : 29.4 GiB
    Duration                    : 1 h 57 min
    Overall bit rate mode       : Variable
    Overall bit rate            : 35.7 Mb/s
    Movie name                  : G.I. Joe - The Rise of Cobra (2009) CinemaniaHDD.Net
    Encoded date                : UTC 2021-08-17 06:29:18
    Writing application         : mkvmerge v56.1.0 ('My Friend') 64-bit
    Writing library             : libebml v1.4.2 + libmatroska v1.6.4
    Attachments                 : CINEMANIAHD.png

    Video
    ID                          : 1
    Format                      : AVC
    Format/Info                 : Advanced Video Codec
    Format profile              : High@L4.1
    Format settings             : CABAC / 4 Ref Frames
    Format settings, CABAC      : Yes
    Format settings, Reference  : 4 frames
    Format settings, GOP        : M=3, N=12
    Codec ID                    : V_MPEG4/ISO/AVC
    Duration                    : 1 h 57 min
    Bit rate mode               : Variable
    Bit rate                    : 30.1 Mb/s
    Maximum bit rate            : 34.9 Mb/s
    Width                       : 1 920 pixels
    Height                      : 1 080 pixels
    Display aspect ratio        : 16:9
    Frame rate mode             : Constant
    Frame rate                  : 23.976 (24000/1001) FPS
    Color space                 : YUV
    Chroma subsampling          : 4:2:0
    Bit depth                   : 8 bits
    Scan type                   : Progressive
    Bits/(Pixel*Frame)          : 0.606
    Stream size                 : 24.8 GiB (84%)
    Title                       : REMUX 1080p [CinemaniaHDD]
    Default                     : Yes
    Forced                      : No
    Color range                 : Limited
    Color primaries             : BT.709
    Transfer characteristics    : BT.709
    Matrix coefficients         : BT.709

    Audio #1
    ID                          : 2
    Format                      : AC-3
    Format/Info                 : Audio Coding 3
    Commercial name             : Dolby Digital
    Codec ID                    : A_AC3
    Duration                    : 1 h 57 min
    Bit rate mode               : Constant
    Bit rate                    : 640 kb/s
    Channel(s)                  : 6 channels
    Channel layout              : L R C LFE Ls Rs
    Sampling rate               : 48.0 kHz
    Frame rate                  : 31.250 FPS (1536 SPF)
    Compression mode            : Lossy
    Stream size                 : 540 MiB (2%)
    Title                       : Español Latino [CinemaniaHDD]
    Language                    : Spanish
    Service kind                : Complete Main
    Default                     : Yes
    Forced                      : No

    Audio #2
    ID                          : 3
    Format                      : DTS XLL
    Format/Info                 : Digital Theater Systems
    Commercial name             : DTS-HD Master Audio
    Codec ID                    : A_DTS
    Duration                    : 1 h 57 min
    Bit rate mode               : Variable
    Bit rate                    : 4 910 kb/s
    Channel(s)                  : 6 channels
    Channel layout              : C L R Ls Rs LFE
    Sampling rate               : 48.0 kHz
    Frame rate                  : 93.750 FPS (512 SPF)
    Bit depth                   : 24 bits
    Compression mode            : Lossless
    Stream size                 : 4.05 GiB (14%)
    Title                       : Ingles [CinemaniaHDD]
    Language                    : English
    Default                     : No
    Forced                      : No

    Text #1
    ID                          : 4
    Format                      : PGS
    Muxing mode                 : zlib
    Codec ID                    : S_HDMV/PGS
    Codec ID/Info               : Picture based subtitle format used on BDs/HD-DVDs
    Duration                    : 1 h 41 min
    Bit rate                    : 474 b/s
    Count of elements           : 40
    Stream size                 : 351 KiB (0%)
    Title                       : Forzados-PGS [CinemaniaHDD]
    Language                    : Spanish
    Default                     : Yes
    Forced                      : No

    Text #2
    ID                          : 5
    Format                      : PGS
    Muxing mode                 : zlib
    Codec ID                    : S_HDMV/PGS
    Codec ID/Info               : Picture based subtitle format used on BDs/HD-DVDs
    Duration                    : 1 h 47 min
    Bit rate                    : 30.0 kb/s
    Count of elements           : 2296
    Stream size                 : 23.1 MiB (0%)
    Title                       : Español-PGS [CinemaniaHDD]
    Language                    : Spanish
    Default                     : No
    Forced                      : No

    Text #3
    ID                          : 6
    Format                      : PGS
    Muxing mode                 : zlib
    Codec ID                    : S_HDMV/PGS
    Codec ID/Info               : Picture based subtitle format used on BDs/HD-DVDs
    Duration                    : 1 h 47 min
    Bit rate                    : 35.2 kb/s
    Count of elements           : 2284
    Stream size                 : 27.1 MiB (0%)
    Title                       : Ingles-PGS [CinemaniaHDD]
    Language                    : English
    Default                     : No
    Forced                      : No

    Text #4
    ID                          : 7
    Format                      : UTF-8
    Codec ID                    : S_TEXT/UTF8
    Codec ID/Info               : UTF-8 Plain Text
    Duration                    : 1 h 41 min
    Bit rate                    : 0 b/s
    Count of elements           : 20
    Stream size                 : 470 Bytes (0%)
    Title                       : Forzados-SRT [CinemaniaHDD]
    Language                    : Spanish
    Default                     : No
    Forced                      : No

    Text #5
    ID                          : 8
    Format                      : UTF-8
    Codec ID                    : S_TEXT/UTF8
    Codec ID/Info               : UTF-8 Plain Text
    Duration                    : 1 h 47 min
    Bit rate                    : 49 b/s
    Count of elements           : 1149
    Stream size                 : 38.8 KiB (0%)
    Title                       : Español-SRT [CinemaniaHDD]
    Language                    : Spanish
    Default                     : No
    Forced                      : No

    Menu
    00:00:00.000                : 00:00:00.000
    00:06:07.701                : 00:06:07.701
    00:13:38.943                : 00:13:38.943
    00:20:15.005                : 00:20:15.005
    00:24:18.082                : 00:24:18.082
    00:28:20.616                : 00:28:20.616
    00:33:14.576                : 00:33:14.576
    00:40:58.122                : 00:40:58.122
    00:47:06.032                : 00:47:06.032
    00:51:19.034                : 00:51:19.034
    00:54:17.838                : 00:54:17.838
    01:00:58.572                : 01:00:58.572
    01:05:46.401                : 01:05:46.401
    01:12:48.489                : 01:12:48.489
    01:18:54.104                : 01:18:54.104
    01:24:13.298                : 01:24:13.298
    01:29:21.982                : 01:29:21.982
    01:38:15.473                : 01:38:15.473
    01:43:36.419                : 01:43:36.419
    01:49:06.582                : 01:49:06.582

  • Peso: 29.4 GiB

Sinopsis

Descargar G.I. Joe: El origen de Cobra (2009) REMUX 1080p Latino. G. I. Joe es el nombre en clave de una fuerza especial altamente entrenada cuya misión fundamental es defender la libertad humana y la paz mundial. Los valerosos Joes son hombres y mujeres de coraje, dueños de una mezcla dinámica de talentos especiales, personalidad e ingenuidad. Dotados de algunas de las armas más sofisticadas que puedan concebirse, estos individuos constituyen la fuerza más formidable de combate del mundo.

Ficha técnica

Video trailer de la película

Enlaces de descarga

Rip de Bluray

Descargar G.I. Joe: El origen de Cobra (2009) REMUX 1080p Latino




Aportes de DPeliculasHDmega la pass es:dpeliculashdmega.org Aportes de CinemaniaHD la pass es:cinemaniahdd.com

Películas relacionadas

  • Warning (2021) PLACEBO Full HD 1080p Latino

    Warning (2021) PLACEBO Full HD 1080p Latino

    2021
    Warning (2021) PLACEBO Full HD 1080p Latino

    1h 25m 2021

    Descargar Warning (2021) PLACEBO Full HD 1080p Latino. Ambientada en un futuro no muy lejano, la obra...

    Director: Agata Alexander

    Género: Ciencia ficción

    Actores: Toni Garrn

  • Warning (2021) REMUX 1080p Latino

    Warning (2021) REMUX 1080p Latino

    2021
    Warning (2021) REMUX 1080p Latino

    1h 25m 2021

    Descargar Warning (2021) REMUX 1080p Latino. Ambientada en un futuro no muy lejano, la obra reflexiona...

    Director: Agata Alexander

    Género: Ciencia ficción

    Actores: Toni Garrn

  • Paratemporal (2019) HD 1080p Latino

    Paratemporal (2019) HD 1080p Latino

    2020
    Paratemporal (2019) HD 1080p Latino

    1h 42m 2020

    Descargar Paratemporal (2019) HD 1080p Latino. Dos paramédicos de Nueva Orleans ven cómo sus vidas...

    Director: Sandy Parker

    Género: Ciencia ficción

    Actores: Walker Babington

  • Paratemporal (2019) PLACEBO Full HD 1080p Latino

    Paratemporal (2019) PLACEBO Full HD 1080p Latino

    2020
    Paratemporal (2019) PLACEBO Full HD 1080p Latino

    1h 42m 2020

    Descargar Paratemporal (2019) PLACEBO Full HD 1080p Latino. Dos paramédicos de Nueva Orleans ven cómo...

    Director: Sandy Parker

    Género: Ciencia ficción

    Actores: Walker Babington

G.I. Joe: El origen de Cobra (2009) REMUX 1080p Latino pelicula full hd, G.I. Joe: El origen de Cobra (2009) REMUX 1080p Latino mega latino, G.I. Joe: El origen de Cobra (2009) REMUX 1080p Latino 4k latino, G.I. Joe: El origen de Cobra (2009) REMUX 1080p Latino pelicula completa, G.I. Joe: El origen de Cobra (2009) REMUX 1080p Latino descargar gratis, descargar G.I. Joe: El origen de Cobra (2009) REMUX 1080p Latino pelicula latino, G.I. Joe: El origen de Cobra (2009) REMUX 1080p Latino 1 link mega, G.I. Joe: El origen de Cobra (2009) REMUX 1080p Latino 1 link google drive, G.I. Joe: El origen de Cobra (2009) REMUX 1080p Latino hd 1080p latino.
Comentarios 1
  • ocpgaiden - 19 agosto, 2021

    Gracias y saludos