×

¿Problemas para descargar con Mozilla, EDGE? Deshabilita la opción "Abrir vinculos en una pestaña nueva" tal como lo muestra ésta imagen.

G.I. Joe Snake Eyes (2021) REMUX 4K HDR Latino – CMHDD

128 vistas

Información de G.I. Joe Snake Eyes (2021) REMUX 4K HDR Latino – CMHDD

Datos de la película

  • Calidad: 4K HDR
  • Audio: Español Latino AC3 5.1 BLURAY - Ingles AC3 5.1 BLURAY
  • Subtitulos: Español Latino PGS
  • Resolución: 3840x2160p
  • Formato: MKV
  • Codec: H.264
  • Encoder: Dracarys
  • Mediainfo: Clic para Mostrar Datos Ver
  • Format                      : Matroska
    Format version              : Version 4
    File size                   : 44.5 GiB
    Duration                    : 2 h 1 min
    Overall bit rate mode       : Variable
    Overall bit rate            : 52.4 Mb/s
    Movie name                  : G.I. Joe Snake Eyes (2021) REMUX 4K HDR Latino - CMHDD
    Encoded date                : UTC 2021-10-19 13:11:16
    Writing application         : mkvmerge v17.0.0 ('Be Ur Friend') 64-bit
    Writing library             : libebml v1.3.5 + libmatroska v1.4.8

    Video
    ID                          : 1
    Format                      : HEVC
    Format/Info                 : High Efficiency Video Coding
    Format profile              : Main 10@L5.1@High
    HDR format                  : SMPTE ST 2086, HDR10 compatible
    Codec ID                    : V_MPEGH/ISO/HEVC
    Duration                    : 2 h 1 min
    Bit rate                    : 46.5 Mb/s
    Width                       : 3 840 pixels
    Height                      : 2 160 pixels
    Display aspect ratio        : 16:9
    Frame rate mode             : Constant
    Frame rate                  : 23.976 (24000/1001) FPS
    Color space                 : YUV
    Chroma subsampling          : 4:2:0 (Type 2)
    Bit depth                   : 10 bits
    Bits/(Pixel*Frame)          : 0.234
    Stream size                 : 39.5 GiB (89%)
    Default                     : Yes
    Forced                      : No
    Color range                 : Limited
    Color primaries             : BT.2020
    Transfer characteristics    : PQ
    Matrix coefficients         : BT.2020 non-constant
    Mastering display color pri : Display P3
    Mastering display luminance : min: 0.0001 cd/m2, max: 1000 cd/m2
    Maximum Content Light Level : 6643 cd/m2
    Maximum Frame-Average Light : 428 cd/m2

    Audio #1
    ID                          : 2
    Format                      : MLP FBA 16-ch
    Format/Info                 : Meridian Lossless Packing FBA with 16-channel presentation
    Commercial name             : Dolby TrueHD with Dolby Atmos
    Codec ID                    : A_TRUEHD
    Duration                    : 2 h 1 min
    Bit rate mode               : Variable
    Bit rate                    : 4 363 kb/s
    Maximum bit rate            : 7 854 kb/s
    Channel(s)                  : 8 channels
    Channel layout              : L R C LFE Ls Rs Lb Rb
    Sampling rate               : 48.0 kHz
    Frame rate                  : 1 200.000 FPS (40 SPF)
    Compression mode            : Lossless
    Stream size                 : 3.70 GiB (8%)
    Language                    : English
    Default                     : Yes
    Forced                      : No
    Number of dynamic objects   : 11
    Bed channel count           : 1 channel
    Bed channel configuration   : LFE

    Audio #2
    ID                          : 3
    Format                      : AC-3
    Format/Info                 : Audio Coding 3
    Commercial name             : Dolby Digital
    Format settings             : Dolby Surround EX
    Codec ID                    : A_AC3
    Duration                    : 2 h 1 min
    Bit rate mode               : Constant
    Bit rate                    : 640 kb/s
    Channel(s)                  : 6 channels
    Channel layout              : L R C LFE Ls Rs
    Sampling rate               : 48.0 kHz
    Frame rate                  : 31.250 FPS (1536 SPF)
    Compression mode            : Lossy
    Stream size                 : 556 MiB (1%)
    Language                    : English
    Service kind                : Complete Main
    Default                     : No
    Forced                      : No

    Audio #3
    ID                          : 4
    Format                      : AC-3
    Format/Info                 : Audio Coding 3
    Commercial name             : Dolby Digital
    Codec ID                    : A_AC3
    Duration                    : 2 h 1 min
    Bit rate mode               : Constant
    Bit rate                    : 640 kb/s
    Channel(s)                  : 6 channels
    Channel layout              : L R C LFE Ls Rs
    Sampling rate               : 48.0 kHz
    Frame rate                  : 31.250 FPS (1536 SPF)
    Compression mode            : Lossy
    Delay relative to video     : 23 ms
    Stream size                 : 556 MiB (1%)
    Language                    : Spanish
    Service kind                : Complete Main
    Default                     : No
    Forced                      : No

    Text #1
    ID                          : 5
    Format                      : PGS
    Muxing mode                 : zlib
    Codec ID                    : S_HDMV/PGS
    Codec ID/Info               : Picture based subtitle format used on BDs/HD-DVDs
    Duration                    : 1 h 52 min
    Bit rate                    : 18.7 kb/s
    Count of elements           : 1552
    Stream size                 : 15.0 MiB (0%)
    Language                    : English
    Default                     : Yes
    Forced                      : No

    Text #2
    ID                          : 6
    Format                      : PGS
    Muxing mode                 : zlib
    Codec ID                    : S_HDMV/PGS
    Codec ID/Info               : Picture based subtitle format used on BDs/HD-DVDs
    Duration                    : 1 h 52 min
    Bit rate                    : 21.6 kb/s
    Count of elements           : 1940
    Stream size                 : 17.4 MiB (0%)
    Language                    : English
    Default                     : No
    Forced                      : No

    Text #3
    ID                          : 7
    Format                      : PGS
    Muxing mode                 : zlib
    Codec ID                    : S_HDMV/PGS
    Codec ID/Info               : Picture based subtitle format used on BDs/HD-DVDs
    Duration                    : 2 h 0 min
    Bit rate                    : 17.5 kb/s
    Count of elements           : 1592
    Stream size                 : 15.1 MiB (0%)
    Language                    : Czech
    Default                     : No
    Forced                      : No

    Text #4
    ID                          : 8
    Format                      : PGS
    Muxing mode                 : zlib
    Codec ID                    : S_HDMV/PGS
    Codec ID/Info               : Picture based subtitle format used on BDs/HD-DVDs
    Duration                    : 2 h 0 min
    Bit rate                    : 17.2 kb/s
    Count of elements           : 1594
    Stream size                 : 14.7 MiB (0%)
    Language                    : Danish
    Default                     : No
    Forced                      : No

    Text #5
    ID                          : 9
    Format                      : PGS
    Muxing mode                 : zlib
    Codec ID                    : S_HDMV/PGS
    Codec ID/Info               : Picture based subtitle format used on BDs/HD-DVDs
    Duration                    : 2 h 0 min
    Bit rate                    : 19.4 kb/s
    Count of elements           : 1584
    Stream size                 : 16.7 MiB (0%)
    Language                    : Greek
    Default                     : No
    Forced                      : No

    Text #6
    ID                          : 10
    Format                      : PGS
    Muxing mode                 : zlib
    Codec ID                    : S_HDMV/PGS
    Codec ID/Info               : Picture based subtitle format used on BDs/HD-DVDs
    Duration                    : 2 h 0 min
    Bit rate                    : 18.4 kb/s
    Count of elements           : 1570
    Stream size                 : 15.8 MiB (0%)
    Language                    : Spanish
    Default                     : No
    Forced                      : No

    Text #7
    ID                          : 11
    Format                      : PGS
    Muxing mode                 : zlib
    Codec ID                    : S_HDMV/PGS
    Codec ID/Info               : Picture based subtitle format used on BDs/HD-DVDs
    Duration                    : 2 h 0 min
    Bit rate                    : 18.2 kb/s
    Count of elements           : 1566
    Stream size                 : 15.6 MiB (0%)
    Language                    : Spanish
    Default                     : No
    Forced                      : No

    Text #8
    ID                          : 12
    Format                      : PGS
    Muxing mode                 : zlib
    Codec ID                    : S_HDMV/PGS
    Codec ID/Info               : Picture based subtitle format used on BDs/HD-DVDs
    Duration                    : 2 h 0 min
    Bit rate                    : 17.0 kb/s
    Count of elements           : 1570
    Stream size                 : 14.6 MiB (0%)
    Language                    : French
    Default                     : No
    Forced                      : No

    Text #9
    ID                          : 13
    Format                      : PGS
    Muxing mode                 : zlib
    Codec ID                    : S_HDMV/PGS
    Codec ID/Info               : Picture based subtitle format used on BDs/HD-DVDs
    Duration                    : 2 h 0 min
    Bit rate                    : 18.9 kb/s
    Count of elements           : 1588
    Stream size                 : 16.2 MiB (0%)
    Language                    : French
    Default                     : No
    Forced                      : No

    Text #10
    ID                          : 14
    Format                      : PGS
    Muxing mode                 : zlib
    Codec ID                    : S_HDMV/PGS
    Codec ID/Info               : Picture based subtitle format used on BDs/HD-DVDs
    Duration                    : 2 h 0 min
    Bit rate                    : 17.3 kb/s
    Count of elements           : 1524
    Stream size                 : 14.9 MiB (0%)
    Language                    : Italian
    Default                     : No
    Forced                      : No

    Text #11
    ID                          : 15
    Format                      : PGS
    Muxing mode                 : zlib
    Codec ID                    : S_HDMV/PGS
    Codec ID/Info               : Picture based subtitle format used on BDs/HD-DVDs
    Duration                    : 2 h 0 min
    Bit rate                    : 18.8 kb/s
    Count of elements           : 1592
    Stream size                 : 16.2 MiB (0%)
    Language                    : Hungarian
    Default                     : No
    Forced                      : No

    Text #12
    ID                          : 16
    Format                      : PGS
    Muxing mode                 : zlib
    Codec ID                    : S_HDMV/PGS
    Codec ID/Info               : Picture based subtitle format used on BDs/HD-DVDs
    Duration                    : 2 h 0 min
    Bit rate                    : 18.2 kb/s
    Count of elements           : 1426
    Stream size                 : 15.6 MiB (0%)
    Language                    : Dutch
    Default                     : No
    Forced                      : No

    Text #13
    ID                          : 17
    Format                      : PGS
    Muxing mode                 : zlib
    Codec ID                    : S_HDMV/PGS
    Codec ID/Info               : Picture based subtitle format used on BDs/HD-DVDs
    Duration                    : 2 h 0 min
    Bit rate                    : 16.5 kb/s
    Count of elements           : 1584
    Stream size                 : 14.1 MiB (0%)
    Language                    : Norwegian
    Default                     : No
    Forced                      : No

    Text #14
    ID                          : 18
    Format                      : PGS
    Muxing mode                 : zlib
    Codec ID                    : S_HDMV/PGS
    Codec ID/Info               : Picture based subtitle format used on BDs/HD-DVDs
    Duration                    : 2 h 0 min
    Bit rate                    : 17.4 kb/s
    Count of elements           : 1588
    Stream size                 : 15.0 MiB (0%)
    Language                    : Polish
    Default                     : No
    Forced                      : No

    Text #15
    ID                          : 19
    Format                      : PGS
    Muxing mode                 : zlib
    Codec ID                    : S_HDMV/PGS
    Codec ID/Info               : Picture based subtitle format used on BDs/HD-DVDs
    Duration                    : 2 h 0 min
    Bit rate                    : 18.4 kb/s
    Count of elements           : 1594
    Stream size                 : 15.8 MiB (0%)
    Language                    : Portuguese
    Default                     : No
    Forced                      : No

    Text #16
    ID                          : 20
    Format                      : PGS
    Muxing mode                 : zlib
    Codec ID                    : S_HDMV/PGS
    Codec ID/Info               : Picture based subtitle format used on BDs/HD-DVDs
    Duration                    : 2 h 0 min
    Bit rate                    : 16.9 kb/s
    Count of elements           : 1526
    Stream size                 : 14.5 MiB (0%)
    Language                    : Romanian
    Default                     : No
    Forced                      : No

    Text #17
    ID                          : 21
    Format                      : PGS
    Muxing mode                 : zlib
    Codec ID                    : S_HDMV/PGS
    Codec ID/Info               : Picture based subtitle format used on BDs/HD-DVDs
    Duration                    : 2 h 0 min
    Bit rate                    : 16.6 kb/s
    Count of elements           : 1540
    Stream size                 : 14.2 MiB (0%)
    Language                    : Slovak
    Default                     : No
    Forced                      : No

    Text #18
    ID                          : 22
    Format                      : PGS
    Muxing mode                 : zlib
    Codec ID                    : S_HDMV/PGS
    Codec ID/Info               : Picture based subtitle format used on BDs/HD-DVDs
    Duration                    : 2 h 0 min
    Bit rate                    : 18.0 kb/s
    Count of elements           : 1508
    Stream size                 : 15.4 MiB (0%)
    Language                    : Finnish
    Default                     : No
    Forced                      : No

    Text #19
    ID                          : 23
    Format                      : PGS
    Muxing mode                 : zlib
    Codec ID                    : S_HDMV/PGS
    Codec ID/Info               : Picture based subtitle format used on BDs/HD-DVDs
    Duration                    : 2 h 0 min
    Bit rate                    : 17.2 kb/s
    Count of elements           : 1514
    Stream size                 : 14.8 MiB (0%)
    Language                    : Swedish
    Default                     : No
    Forced                      : No

    Menu
    00:00:00.000                : en:Chapter 1
    00:10:17.366                : en:Chapter 2
    00:19:39.887                : en:Chapter 3
    00:28:50.061                : en:Chapter 4
    00:37:50.977                : en:Chapter 5
    00:43:39.867                : en:Chapter 6
    00:54:53.790                : en:Chapter 7
    01:03:18.920                : en:Chapter 8
    01:14:04.440                : en:Chapter 9
    01:23:59.117                : en:Chapter 10
    01:29:09.218                : en:Chapter 11
    01:36:39.293                : en:Chapter 12
    01:46:26.922                : en:Chapter 13
    01:53:51.533                : en:Chapter 14

  • Peso: 44.5 GiB

Sinopsis

G.I. JOE: Snake Eyes es protagonizada por Henry Golding. Snake Eyes es un solitario y tenaz guerrero que se une a al antiguo clan japonés de los Arashikage luego de salvarle la vida al heredero del clan. Al llegar a Japón, los Arashikage le enseñan a Snake Eyes los caminos del guerrero ninja y le dan algo que siempre quiso tener: un hogar. Pero, al revelarse los secretos sobre su pasado, pondrán a prueba el honor y la lealtad de Snake Eyes, incluso si eso significa perder la confianza de los más cercanos a él.

Ficha técnica

Video trailer de la película

Enlaces de descarga

Rip de Bluray

Descargar G.I. Joe Snake Eyes (2021) REMUX 4K HDR Latino – CMHDD


Aportes de DPeliculasHDmega la pass es:dpeliculashdmega.org Aportes de CinemaniaHD la pass es:cinemaniahdd.com
Guardado en : Acción , Aventura

Películas relacionadas

G.I. Joe Snake Eyes (2021) REMUX 4K HDR Latino – CMHDD pelicula full hd, G.I. Joe Snake Eyes (2021) REMUX 4K HDR Latino – CMHDD mega latino, G.I. Joe Snake Eyes (2021) REMUX 4K HDR Latino – CMHDD 4k latino, G.I. Joe Snake Eyes (2021) REMUX 4K HDR Latino – CMHDD pelicula completa, G.I. Joe Snake Eyes (2021) REMUX 4K HDR Latino – CMHDD descargar gratis, descargar G.I. Joe Snake Eyes (2021) REMUX 4K HDR Latino – CMHDD pelicula latino, G.I. Joe Snake Eyes (2021) REMUX 4K HDR Latino – CMHDD 1 link mega, G.I. Joe Snake Eyes (2021) REMUX 4K HDR Latino – CMHDD 1 link google drive, G.I. Joe Snake Eyes (2021) REMUX 4K HDR Latino – CMHDD hd 1080p latino.