×

¿Problemas para descargar con Mozilla, EDGE? Deshabilita la opción "Abrir vinculos en una pestaña nueva" tal como lo muestra ésta imagen.

G.I. Joe 2: El contraataque (2013) EXTENDED REMUX 1080p Latino

174 vistas

Información de G.I. Joe 2: El contraataque (2013) EXTENDED REMUX 1080p Latino

Datos de la película

  • Calidad: Full 1080p
  • Audio: Se especifica abajo de la Sinopsis
  • Subtitulos: Español Latino PGS - Ingles PGS
  • Resolución: 1920x1080p
  • Formato: MKV
  • Codec: H.264
  • Encoder: CinefiloCool
  • Mediainfo: Clic para Mostrar Datos Ver
  • G.I. Joe El contraataque (2013) EXTENDED REMUX 1080p Latino-CMHDD.mkv
    Format                      : Matroska
    Format version              : Version 4
    File size                   : 27.8 GiB
    Duration                    : 2 h 3 min
    Overall bit rate mode       : Variable
    Overall bit rate            : 32.4 Mb/s
    Movie name                  : G.I. Joe - Retaliation (2013) CinemaniaHDD.Net
    Encoded date                : UTC 2021-08-17 16:25:18
    Writing application         : mkvmerge v56.1.0 ('My Friend') 64-bit
    Writing library             : libebml v1.4.2 + libmatroska v1.6.4
    Attachments                 : CINEMANIAHD.png

    Video
    ID                          : 1
    Format                      : AVC
    Format/Info                 : Advanced Video Codec
    Format profile              : High@L4.1
    Format settings             : CABAC / 4 Ref Frames
    Format settings, CABAC      : Yes
    Format settings, Reference  : 4 frames
    Codec ID                    : V_MPEG4/ISO/AVC
    Duration                    : 2 h 3 min
    Bit rate mode               : Variable
    Bit rate                    : 26.8 Mb/s
    Maximum bit rate            : 36.0 Mb/s
    Width                       : 1 920 pixels
    Height                      : 1 080 pixels
    Display aspect ratio        : 16:9
    Frame rate mode             : Constant
    Frame rate                  : 23.976 (24000/1001) FPS
    Color space                 : YUV
    Chroma subsampling          : 4:2:0
    Bit depth                   : 8 bits
    Scan type                   : Progressive
    Bits/(Pixel*Frame)          : 0.538
    Stream size                 : 23.0 GiB (83%)
    Title                       : REMUX HD1080p [CinemaniaHDD]
    Language                    : English
    Default                     : Yes
    Forced                      : No

    Audio #1
    ID                          : 2
    Format                      : AC-3
    Format/Info                 : Audio Coding 3
    Commercial name             : Dolby Digital
    Codec ID                    : A_AC3
    Duration                    : 2 h 3 min
    Bit rate mode               : Constant
    Bit rate                    : 640 kb/s
    Channel(s)                  : 6 channels
    Channel layout              : L R C LFE Ls Rs
    Sampling rate               : 48.0 kHz
    Frame rate                  : 31.250 FPS (1536 SPF)
    Compression mode            : Lossy
    Stream size                 : 563 MiB (2%)
    Title                       : Español Latino [CinemaniaHDD]
    Language                    : Spanish
    Service kind                : Complete Main
    Default                     : Yes
    Forced                      : No

    Audio #2
    ID                          : 3
    Format                      : MLP FBA
    Format/Info                 : Meridian Lossless Packing FBA
    Commercial name             : Dolby TrueHD
    Codec ID                    : A_TRUEHD
    Duration                    : 2 h 3 min
    Bit rate mode               : Variable
    Bit rate                    : 4 258 kb/s
    Maximum bit rate            : 6 108 kb/s
    Channel(s)                  : 8 channels
    Channel layout              : L R C LFE Ls Rs Lb Rb
    Sampling rate               : 48.0 kHz
    Frame rate                  : 1 200.000 FPS (40 SPF)
    Compression mode            : Lossless
    Stream size                 : 3.66 GiB (13%)
    Title                       : Ingles THD[CinemaniaHDD]
    Language                    : English
    Default                     : No
    Forced                      : No

    Audio #3
    ID                          : 4
    Format                      : AC-3
    Format/Info                 : Audio Coding 3
    Commercial name             : Dolby Digital
    Codec ID                    : A_AC3
    Duration                    : 2 h 3 min
    Bit rate mode               : Constant
    Bit rate                    : 640 kb/s
    Channel(s)                  : 6 channels
    Channel layout              : L R C LFE Ls Rs
    Sampling rate               : 48.0 kHz
    Frame rate                  : 31.250 FPS (1536 SPF)
    Compression mode            : Lossy
    Stream size                 : 563 MiB (2%)
    Title                       : Ingles AC3 [CinemaniaHDD]
    Language                    : English
    Service kind                : Complete Main
    Default                     : No
    Forced                      : No

    Text #1
    ID                          : 5
    Format                      : PGS
    Muxing mode                 : zlib
    Codec ID                    : S_HDMV/PGS
    Codec ID/Info               : Picture based subtitle format used on BDs/HD-DVDs
    Duration                    : 1 h 48 min
    Bit rate                    : 236 b/s
    Count of elements           : 20
    Stream size                 : 189 KiB (0%)
    Title                       : Forzados-PGS [CinemaniaHDD]
    Language                    : Spanish
    Default                     : Yes
    Forced                      : No

    Text #2
    ID                          : 6
    Format                      : PGS
    Muxing mode                 : zlib
    Codec ID                    : S_HDMV/PGS
    Codec ID/Info               : Picture based subtitle format used on BDs/HD-DVDs
    Duration                    : 1 h 52 min
    Bit rate                    : 26.8 kb/s
    Count of elements           : 2494
    Stream size                 : 21.6 MiB (0%)
    Title                       : Español-PGS [CinemaniaHDD]
    Language                    : Spanish
    Default                     : No
    Forced                      : No

    Text #3
    ID                          : 7
    Format                      : PGS
    Muxing mode                 : zlib
    Codec ID                    : S_HDMV/PGS
    Codec ID/Info               : Picture based subtitle format used on BDs/HD-DVDs
    Duration                    : 1 h 52 min
    Bit rate                    : 29.0 kb/s
    Count of elements           : 2540
    Stream size                 : 23.3 MiB (0%)
    Title                       : Ingles-PGS [CinemaniaHDD]
    Language                    : English
    Default                     : No
    Forced                      : No

    Text #4
    ID                          : 8
    Format                      : UTF-8
    Codec ID                    : S_TEXT/UTF8
    Codec ID/Info               : UTF-8 Plain Text
    Duration                    : 1 h 48 min
    Bit rate                    : 0 b/s
    Count of elements           : 14
    Stream size                 : 325 Bytes (0%)
    Title                       : Forzados-SRT [CinemaniaHDD]
    Language                    : Spanish
    Default                     : No
    Forced                      : No

    Text #5
    ID                          : 9
    Format                      : UTF-8
    Codec ID                    : S_TEXT/UTF8
    Codec ID/Info               : UTF-8 Plain Text
    Duration                    : 1 h 52 min
    Bit rate                    : 45 b/s
    Count of elements           : 1200
    Stream size                 : 37.6 KiB (0%)
    Title                       : Español-SRT [CinemaniaHDD]
    Language                    : Spanish
    Default                     : No
    Forced                      : No

    Menu
    00:00:00.000                : Opening Sequence
    00:11:31.858                : Cobra is Challenged
    00:18:28.607                : A New, Powerful Contraption
    00:23:49.261                : Retreat from Battle
    00:31:58.125                : The Missing Unit
    00:37:16.943                : The New Recruits
    00:46:13.646                : Flirtatious Mistake
    00:48:16.727                : Jail Break
    00:54:59.630                : The Supreme Ruler
    01:00:31.378                : The Bad Pods
    01:08:14.924                : The Renegades
    01:14:38.474                : The Pod Launch
    01:22:21.770                : Stop the Cobra Forces
    01:26:19.424                : Rally the Troops
    01:32:55.487                : Cobra Gets the B.E.T.
    01:43:06.097                : Fry the Spores!
    01:53:55.579                : The End

  • Peso: 27.8 GiB

Sinopsis

Descargar G.I. Joe 2: El contraataque (2013) EXTENDED REMUX 1080p Latino. En esta ocasión, los G.I Joes no solo tendrán que luchar contra su enemigo mortal, Cobra, sino que además se verán obligados a lidiar con las amenazas de dentro del gobierno que ponen en peligro su propia existencia.Dirigida por Jon M. Chu, y producida por Lorenzo di Bonaventura y Brian Goldner, con un guión de Rhett Reese y Paul Wernick. Basada en los personajes de G.I. Joe® de Hasbro.

Audio Español Latino AC3 5.1 Bluray – Ingles TrueHD 7.1 + AC3 5.1 Bluray

Ficha técnica

Video trailer de la película

Enlaces de descarga

Rip de Bluray

Descargar G.I. Joe 2: El contraataque (2013) EXTENDED REMUX 1080p Latino




Aportes de DPeliculasHDmega la pass es:dpeliculashdmega.org Aportes de CinemaniaHD la pass es:cinemaniahdd.com

Películas relacionadas

  • Warning (2021) PLACEBO Full HD 1080p Latino

    Warning (2021) PLACEBO Full HD 1080p Latino

    2021
    Warning (2021) PLACEBO Full HD 1080p Latino

    1h 25m 2021

    Descargar Warning (2021) PLACEBO Full HD 1080p Latino. Ambientada en un futuro no muy lejano, la obra...

    Director: Agata Alexander

    Género: Ciencia ficción

    Actores: Toni Garrn

  • Warning (2021) REMUX 1080p Latino

    Warning (2021) REMUX 1080p Latino

    2021
    Warning (2021) REMUX 1080p Latino

    1h 25m 2021

    Descargar Warning (2021) REMUX 1080p Latino. Ambientada en un futuro no muy lejano, la obra reflexiona...

    Director: Agata Alexander

    Género: Ciencia ficción

    Actores: Toni Garrn

  • Paratemporal (2019) HD 1080p Latino

    Paratemporal (2019) HD 1080p Latino

    2020
    Paratemporal (2019) HD 1080p Latino

    1h 42m 2020

    Descargar Paratemporal (2019) HD 1080p Latino. Dos paramédicos de Nueva Orleans ven cómo sus vidas...

    Director: Sandy Parker

    Género: Ciencia ficción

    Actores: Walker Babington

  • Paratemporal (2019) PLACEBO Full HD 1080p Latino

    Paratemporal (2019) PLACEBO Full HD 1080p Latino

    2020
    Paratemporal (2019) PLACEBO Full HD 1080p Latino

    1h 42m 2020

    Descargar Paratemporal (2019) PLACEBO Full HD 1080p Latino. Dos paramédicos de Nueva Orleans ven cómo...

    Director: Sandy Parker

    Género: Ciencia ficción

    Actores: Walker Babington

G.I. Joe 2: El contraataque (2013) EXTENDED REMUX 1080p Latino pelicula full hd, G.I. Joe 2: El contraataque (2013) EXTENDED REMUX 1080p Latino mega latino, G.I. Joe 2: El contraataque (2013) EXTENDED REMUX 1080p Latino 4k latino, G.I. Joe 2: El contraataque (2013) EXTENDED REMUX 1080p Latino pelicula completa, G.I. Joe 2: El contraataque (2013) EXTENDED REMUX 1080p Latino descargar gratis, descargar G.I. Joe 2: El contraataque (2013) EXTENDED REMUX 1080p Latino pelicula latino, G.I. Joe 2: El contraataque (2013) EXTENDED REMUX 1080p Latino 1 link mega, G.I. Joe 2: El contraataque (2013) EXTENDED REMUX 1080p Latino 1 link google drive, G.I. Joe 2: El contraataque (2013) EXTENDED REMUX 1080p Latino hd 1080p latino.
Comentarios 1
  • ocpgaiden - 19 agosto, 2021

    Gracias por las 2 películas de G.I. Joe en Remux, saludos