G.I. Joe Retaliation (2013) REMUX 4K HDR Latino – CMHDD

75 vistas
1 estrella2 estrellas3 estrellas4 estrellas5 estrellas (1 votos, promedio: 5,00 de 5)
Cargando...

Información de G.I. Joe Retaliation (2013) REMUX 4K HDR Latino – CMHDD

Datos de la película

  • Calidad: 4K HDR
  • Audio: Español Latino AC3 5.1 BLURAY - Ingles AC3 5.1 BLURAY
  • Subtitulos: Español Latino PGS
  • Resolución: 3840x2160p
  • Formato: MKV
  • Codec: H.264
  • Encoder: Dracarys
  • Mediainfo: Clic para Mostrar Datos Ver
  • Format                      : Matroska
    Format version              : Version 4
    File size                   : 45.4 GiB
    Duration                    : 1 h 50 min
    Overall bit rate mode       : Variable
    Overall bit rate            : 59.0 Mb/s
    Movie name                  : G.I. Joe: Retaliation (2013) REMUX 4K HDR Latino - CMHDD
    Encoded date                : UTC 2021-02-24 03:30:10
    Writing application         : mkvmerge v51.0.0 ('I Wish') 64-bit
    Writing library             : libebml v1.4.0 + libmatroska v1.6.2

    Video
    ID                          : 1
    Format                      : HEVC
    Format/Info                 : High Efficiency Video Coding
    Format profile              : Main 10@L5.1@High
    HDR format                  : SMPTE ST 2086, HDR10 compatible
    Codec ID                    : V_MPEGH/ISO/HEVC
    Duration                    : 1 h 50 min
    Bit rate                    : 53.2 Mb/s
    Width                       : 3 840 pixels
    Height                      : 2 160 pixels
    Display aspect ratio        : 16:9
    Frame rate mode             : Constant
    Frame rate                  : 23.976 (24000/1001) FPS
    Color space                 : YUV
    Chroma subsampling          : 4:2:0 (Type 2)
    Bit depth                   : 10 bits
    Bits/(Pixel*Frame)          : 0.267
    Stream size                 : 41.0 GiB (90%)
    Default                     : Yes
    Forced                      : No
    Color range                 : Limited
    Color primaries             : BT.2020
    Transfer characteristics    : PQ
    Matrix coefficients         : BT.2020 non-constant
    Mastering display color pri : Display P3
    Mastering display luminance : min: 0.0001 cd/m2, max: 1000 cd/m2

    Audio #1
    ID                          : 2
    Format                      : AC-3
    Format/Info                 : Audio Coding 3
    Commercial name             : Dolby Digital
    Codec ID                    : A_AC3
    Duration                    : 1 h 50 min
    Bit rate mode               : Constant
    Bit rate                    : 640 kb/s
    Channel(s)                  : 6 channels
    Channel layout              : L R C LFE Ls Rs
    Sampling rate               : 48.0 kHz
    Frame rate                  : 31.250 FPS (1536 SPF)
    Compression mode            : Lossy
    Stream size                 : 505 MiB (1%)
    Language                    : Spanish
    Service kind                : Complete Main
    Default                     : Yes
    Forced                      : No

    Audio #2
    ID                          : 3
    Format                      : MLP FBA
    Format/Info                 : Meridian Lossless Packing FBA
    Commercial name             : Dolby TrueHD
    Codec ID                    : A_TRUEHD
    Duration                    : 1 h 50 min
    Bit rate mode               : Variable
    Bit rate                    : 4 420 kb/s
    Maximum bit rate            : 6 204 kb/s
    Channel(s)                  : 8 channels
    Channel layout              : L R C LFE Ls Rs Lb Rb
    Sampling rate               : 48.0 kHz
    Frame rate                  : 1 200.000 FPS (40 SPF)
    Compression mode            : Lossless
    Delay relative to video     : -1 ms
    Stream size                 : 3.40 GiB (7%)
    Language                    : English
    Default                     : No
    Forced                      : No

    Audio #3
    ID                          : 4
    Format                      : AC-3
    Format/Info                 : Audio Coding 3
    Commercial name             : Dolby Digital
    Codec ID                    : A_AC3
    Duration                    : 1 h 50 min
    Bit rate mode               : Constant
    Bit rate                    : 640 kb/s
    Channel(s)                  : 6 channels
    Channel layout              : L R C LFE Ls Rs
    Sampling rate               : 48.0 kHz
    Frame rate                  : 31.250 FPS (1536 SPF)
    Compression mode            : Lossy
    Delay relative to video     : -1 ms
    Stream size                 : 505 MiB (1%)
    Language                    : English
    Service kind                : Complete Main
    Default                     : No
    Forced                      : No

    Text
    ID                          : 5
    Format                      : PGS
    Muxing mode                 : zlib
    Codec ID                    : S_HDMV/PGS
    Codec ID/Info               : Picture based subtitle format used on BDs/HD-DVDs
    Duration                    : 1 h 39 min
    Bit rate                    : 26.3 kb/s
    Count of elements           : 2070
    Stream size                 : 18.8 MiB (0%)
    Language                    : Spanish
    Default                     : No
    Forced                      : No

    Menu
    00:00:00.000                : :Title Sequence
    00:00:36.000                : :Scene 2
    00:13:40.000                : :Scene 3
    00:20:39.000                : :Scene 4
    00:30:35.000                : :Scene 5
    00:41:15.000                : :Scene 6
    00:49:13.000                : :Scene 7
    01:01:16.000                : :Scene 8
    01:10:00.000                : :Scene 9
    01:20:29.000                : :Scene 10
    01:22:34.000                : :End Credits

  • Peso: 45.4 GiB

Sinopsis

En esta ocasión, los G.I Joes no solo tendrán que luchar contra su enemigo mortal, Cobra, sino que además se verán obligados a lidiar con las amenazas de dentro del gobierno que ponen en peligro su propia existencia.Dirigida por Jon M. Chu, y producida por Lorenzo di Bonaventura y Brian Goldner, con un guión de Rhett Reese y Paul Wernick. Basada en los personajes de G.I. Joe® de Hasbro.

Ficha técnica

Video trailer de la película

Enlaces de descarga

Rip de Bluray

Descargar G.I. Joe Retaliation (2013) REMUX 4K HDR Latino – CMHDD


Aportes de DPeliculasHDmega la pass es:dpeliculashdmega.org Aportes de CinemaniaHD la pass es:cinemaniahdd.com

Películas relacionadas

  • Horizon Line (2020) HD 1080p Latino

    Horizon Line (2020) HD 1080p Latino

    2020
    Horizon Line (2020) HD 1080p Latino

    0.0 1h 31m 2020

    Descargar Horizon Line (2020) HD 1080p Latino. Una pareja que viaja en un avión pequeño para asistir...

    Director: Mikael Marcimain

    Género: HD 1080p

    Actores: Pearl Mackie

  • Horizon Line (2020) PLACEBO Full HD 1080p Latino

    Horizon Line (2020) PLACEBO Full HD 1080p Latino

    2020
    Horizon Line (2020) PLACEBO Full HD 1080p Latino

    0.0 1h 31m 2020

    Descargar Horizon Line (2020) PLACEBO Full HD 1080p Latino. Una pareja que viaja en un avión pequeño...

    Director: Mikael Marcimain

    Género: FULL 1080p Plateadas

    Actores: Pearl Mackie

  • Horizon Line (2020) REMUX 1080p Latino

    Horizon Line (2020) REMUX 1080p Latino

    2020
    Horizon Line (2020) REMUX 1080p Latino

    5.0 1h 31m 2020

    Descargar Horizon Line (2020) REMUX 1080p Latino. Una pareja que viaja en un avión pequeño para asistir...

    Director: Mikael Marcimain

    Género: Remux

    Actores: Pearl Mackie

  • Sola (2020) HD 1080p Latino

    Sola (2020) HD 1080p Latino

    2020
    Sola (2020) HD 1080p Latino

    0.0 1h 40m 2020

    Descargar Sola (2020) HD 1080p Latino. Una mujer viuda que viaja sola es secuestrada por un asesino a...

    Director: John Hyams

    Género: Drama

    Actores: Shelly Lipkin

  • Sola (2020) REMUX 1080p Latino

    Sola (2020) REMUX 1080p Latino

    2020
    Sola (2020) REMUX 1080p Latino

    0.0 1h 40m 2020

    Descargar Sola (2020) REMUX 1080p Latino. Una mujer viuda que viaja sola es secuestrada por un asesino...

    Director: John Hyams

    Género: Drama

    Actores: Shelly Lipkin

G.I. Joe Retaliation (2013) REMUX 4K HDR Latino – CMHDD pelicula full hd, G.I. Joe Retaliation (2013) REMUX 4K HDR Latino – CMHDD mega latino, G.I. Joe Retaliation (2013) REMUX 4K HDR Latino – CMHDD 4k latino, G.I. Joe Retaliation (2013) REMUX 4K HDR Latino – CMHDD pelicula completa, G.I. Joe Retaliation (2013) REMUX 4K HDR Latino – CMHDD descargar gratis, descargar G.I. Joe Retaliation (2013) REMUX 4K HDR Latino – CMHDD pelicula latino, G.I. Joe Retaliation (2013) REMUX 4K HDR Latino – CMHDD 1 link mega, G.I. Joe Retaliation (2013) REMUX 4K HDR Latino – CMHDD 1 link google drive, G.I. Joe Retaliation (2013) REMUX 4K HDR Latino – CMHDD hd 1080p latino.
Comentarios 0