×

¿Problemas para descargar con Mozilla, EDGE? Deshabilita la opción "Abrir vinculos en una pestaña nueva" tal como lo muestra ésta imagen.

G.I. Joe 2: El contraataque (2013) EXTENDED Full HD 1080p Latino

202 vistas

Información de G.I. Joe 2: El contraataque (2013) EXTENDED Full HD 1080p Latino

Datos de la película

  • Calidad: Full 1080p
  • Audio: Español Latino AC3 5.1 BLURAY - Ingles AC3 5.1 BLURAY
  • Subtitulos: Español Latino PGS - Ingles PGS
  • Resolución: 1920x1080p
  • Formato: MKV
  • Codec: H.264
  • Encoder: CinefiloCool
  • Mediainfo: Clic para Mostrar Datos Ver
  • G.I. Joe El contraataque (2013) EXTENDED Full HD 1080p Latino-CMHDD.mkv
    Format                      : Matroska
    Format version              : Version 4
    File size                   : 9.34 GiB
    Duration                    : 2 h 3 min
    Overall bit rate            : 10.9 Mb/s
    Movie name                  : G.I. Joe - Retaliation (2013) CinemaniaHDD.Net
    Encoded date                : UTC 2021-08-18 15:18:38
    Writing application         : mkvmerge v56.1.0 ('My Friend') 64-bit
    Writing library             : libebml v1.4.2 + libmatroska v1.6.4
    Attachments                 : CINEMANIAHD.png

    Video
    ID                          : 1
    Format                      : AVC
    Format/Info                 : Advanced Video Codec
    Format profile              : High@L4.1
    Format settings             : CABAC / 4 Ref Frames
    Format settings, CABAC      : Yes
    Format settings, Reference  : 4 frames
    Codec ID                    : V_MPEG4/ISO/AVC
    Duration                    : 2 h 3 min
    Bit rate                    : 9 573 kb/s
    Width                       : 1 920 pixels
    Height                      : 1 080 pixels
    Display aspect ratio        : 16:9
    Frame rate mode             : Constant
    Frame rate                  : 23.976 (24000/1001) FPS
    Color space                 : YUV
    Chroma subsampling          : 4:2:0
    Bit depth                   : 8 bits
    Scan type                   : Progressive
    Bits/(Pixel*Frame)          : 0.193
    Stream size                 : 8.23 GiB (88%)
    Title                       : Full HD1080p [CinemaniaHDD]
    Writing library             : x264 core 163 r3059 b684ebe0
    Encoding settings           : cabac=1 / ref=4 / deblock=1:0:0 / analyse=0x3:0x133 / me=tesa / subme=11 / psy=1 / psy_rd=1.00:0.00 / mixed_ref=1 / me_range=24 / chroma_me=1 / trellis=2 / 8x8dct=1 / cqm=0 / deadzone=21,11 / fast_pskip=0 / chroma_qp_offset=-2 / threads=24 / lookahead_threads=6 / sliced_threads=0 / nr=0 / decimate=1 / interlaced=0 / bluray_compat=0 / constrained_intra=0 / bframes=16 / b_pyramid=2 / b_adapt=2 / b_bias=0 / direct=3 / weightb=1 / open_gop=0 / weightp=2 / keyint=240 / keyint_min=24 / scenecut=40 / intra_refresh=0 / rc_lookahead=60 / rc=crf / mbtree=1 / crf=20.0 / qcomp=0.60 / qpmin=0 / qpmax=69 / qpstep=4 / vbv_maxrate=62500 / vbv_bufsize=78125 / crf_max=0.0 / nal_hrd=none / filler=0 / ip_ratio=1.40 / aq=1:1.00
    Default                     : Yes
    Forced                      : Yes
    Color range                 : Limited
    Color primaries             : BT.709
    Transfer characteristics    : BT.709
    Matrix coefficients         : BT.709

    Audio #1
    ID                          : 2
    Format                      : AC-3
    Format/Info                 : Audio Coding 3
    Commercial name             : Dolby Digital
    Codec ID                    : A_AC3
    Duration                    : 2 h 3 min
    Bit rate mode               : Constant
    Bit rate                    : 640 kb/s
    Channel(s)                  : 6 channels
    Channel layout              : L R C LFE Ls Rs
    Sampling rate               : 48.0 kHz
    Frame rate                  : 31.250 FPS (1536 SPF)
    Compression mode            : Lossy
    Stream size                 : 563 MiB (6%)
    Title                       : Español Latino [CinemaniaHDD]
    Language                    : Spanish
    Service kind                : Complete Main
    Default                     : Yes
    Forced                      : Yes

    Audio #2
    ID                          : 3
    Format                      : AC-3
    Format/Info                 : Audio Coding 3
    Commercial name             : Dolby Digital
    Codec ID                    : A_AC3
    Duration                    : 2 h 3 min
    Bit rate mode               : Constant
    Bit rate                    : 640 kb/s
    Channel(s)                  : 6 channels
    Channel layout              : L R C LFE Ls Rs
    Sampling rate               : 48.0 kHz
    Frame rate                  : 31.250 FPS (1536 SPF)
    Compression mode            : Lossy
    Stream size                 : 563 MiB (6%)
    Title                       : Ingles AC3 [CinemaniaHDD]
    Language                    : English
    Service kind                : Complete Main
    Default                     : No
    Forced                      : No

    Text #1
    ID                          : 4
    Format                      : PGS
    Muxing mode                 : zlib
    Codec ID                    : S_HDMV/PGS
    Codec ID/Info               : Picture based subtitle format used on BDs/HD-DVDs
    Duration                    : 1 h 48 min
    Bit rate                    : 236 b/s
    Count of elements           : 20
    Stream size                 : 189 KiB (0%)
    Title                       : Forzados-PGS [CinemaniaHDD]
    Language                    : Spanish
    Default                     : Yes
    Forced                      : Yes

    Text #2
    ID                          : 5
    Format                      : PGS
    Muxing mode                 : zlib
    Codec ID                    : S_HDMV/PGS
    Codec ID/Info               : Picture based subtitle format used on BDs/HD-DVDs
    Duration                    : 1 h 52 min
    Bit rate                    : 26.8 kb/s
    Count of elements           : 2494
    Stream size                 : 21.6 MiB (0%)
    Title                       : Español-PGS [CinemaniaHDD]
    Language                    : Spanish
    Default                     : No
    Forced                      : No

    Text #3
    ID                          : 6
    Format                      : PGS
    Muxing mode                 : zlib
    Codec ID                    : S_HDMV/PGS
    Codec ID/Info               : Picture based subtitle format used on BDs/HD-DVDs
    Duration                    : 1 h 52 min
    Bit rate                    : 29.0 kb/s
    Count of elements           : 2540
    Stream size                 : 23.3 MiB (0%)
    Title                       : Ingles-PGS [CinemaniaHDD]
    Language                    : English
    Default                     : No
    Forced                      : No

    Text #4
    ID                          : 7
    Format                      : UTF-8
    Codec ID                    : S_TEXT/UTF8
    Codec ID/Info               : UTF-8 Plain Text
    Duration                    : 1 h 48 min
    Bit rate                    : 0 b/s
    Count of elements           : 14
    Stream size                 : 325 Bytes (0%)
    Title                       : Forzados-SRT [CinemaniaHDD]
    Language                    : Spanish
    Default                     : No
    Forced                      : No

    Text #5
    ID                          : 8
    Format                      : UTF-8
    Codec ID                    : S_TEXT/UTF8
    Codec ID/Info               : UTF-8 Plain Text
    Duration                    : 1 h 52 min
    Bit rate                    : 45 b/s
    Count of elements           : 1200
    Stream size                 : 37.6 KiB (0%)
    Title                       : Español-SRT [CinemaniaHDD]
    Language                    : Spanish
    Default                     : No
    Forced                      : No

    Menu
    00:00:00.000                : Opening Sequence
    00:11:31.858                : Cobra is Challenged
    00:18:28.607                : A New, Powerful Contraption
    00:23:49.261                : Retreat from Battle
    00:31:58.125                : The Missing Unit
    00:37:16.943                : The New Recruits
    00:46:13.646                : Flirtatious Mistake
    00:48:16.727                : Jail Break
    00:54:59.630                : The Supreme Ruler
    01:00:31.378                : The Bad Pods
    01:08:14.924                : The Renegades
    01:14:38.474                : The Pod Launch
    01:22:21.770                : Stop the Cobra Forces
    01:26:19.424                : Rally the Troops
    01:32:55.487                : Cobra Gets the B.E.T.
    01:43:06.097                : Fry the Spores!
    01:53:55.579                : The End

  • Peso: 9.34 GiB

Sinopsis

Descargar G.I. Joe 2: El contraataque (2013) EXTENDED Full HD 1080p Latino. En esta ocasión, los G.I Joes no solo tendrán que luchar contra su enemigo mortal, Cobra, sino que además se verán obligados a lidiar con las amenazas de dentro del gobierno que ponen en peligro su propia existencia.Dirigida por Jon M. Chu, y producida por Lorenzo di Bonaventura y Brian Goldner, con un guión de Rhett Reese y Paul Wernick. Basada en los personajes de G.I. Joe® de Hasbro.

Ficha técnica

Video trailer de la película

Enlaces de descarga

Rip de Bluray

Descargar G.I. Joe 2: El contraataque (2013) EXTENDED Full HD 1080p Latino




Aportes de DPeliculasHDmega la pass es:dpeliculashdmega.org Aportes de CinemaniaHD la pass es:cinemaniahdd.com

Películas relacionadas

  • Warning (2021) PLACEBO Full HD 1080p Latino

    Warning (2021) PLACEBO Full HD 1080p Latino

    2021
    Warning (2021) PLACEBO Full HD 1080p Latino

    1h 25m 2021

    Descargar Warning (2021) PLACEBO Full HD 1080p Latino. Ambientada en un futuro no muy lejano, la obra...

    Director: Agata Alexander

    Género: Ciencia ficción

    Actores: Toni Garrn

  • Warning (2021) REMUX 1080p Latino

    Warning (2021) REMUX 1080p Latino

    2021
    Warning (2021) REMUX 1080p Latino

    1h 25m 2021

    Descargar Warning (2021) REMUX 1080p Latino. Ambientada en un futuro no muy lejano, la obra reflexiona...

    Director: Agata Alexander

    Género: Ciencia ficción

    Actores: Toni Garrn

  • Paratemporal (2019) HD 1080p Latino

    Paratemporal (2019) HD 1080p Latino

    2020
    Paratemporal (2019) HD 1080p Latino

    1h 42m 2020

    Descargar Paratemporal (2019) HD 1080p Latino. Dos paramédicos de Nueva Orleans ven cómo sus vidas...

    Director: Sandy Parker

    Género: Ciencia ficción

    Actores: Walker Babington

  • Paratemporal (2019) PLACEBO Full HD 1080p Latino

    Paratemporal (2019) PLACEBO Full HD 1080p Latino

    2020
    Paratemporal (2019) PLACEBO Full HD 1080p Latino

    1h 42m 2020

    Descargar Paratemporal (2019) PLACEBO Full HD 1080p Latino. Dos paramédicos de Nueva Orleans ven cómo...

    Director: Sandy Parker

    Género: Ciencia ficción

    Actores: Walker Babington

  • Paratemporal (2019) REMUX 1080p Latino

    Paratemporal (2019) REMUX 1080p Latino

    2020
    Paratemporal (2019) REMUX 1080p Latino

    1h 42m 2020

    Descargar Paratemporal (2019) REMUX 1080p Latino. Dos paramédicos de Nueva Orleans ven cómo sus vidas...

    Director: Sandy Parker

    Género: Ciencia ficción

    Actores: Walker Babington

G.I. Joe 2: El contraataque (2013) EXTENDED Full HD 1080p Latino pelicula full hd, G.I. Joe 2: El contraataque (2013) EXTENDED Full HD 1080p Latino mega latino, G.I. Joe 2: El contraataque (2013) EXTENDED Full HD 1080p Latino 4k latino, G.I. Joe 2: El contraataque (2013) EXTENDED Full HD 1080p Latino pelicula completa, G.I. Joe 2: El contraataque (2013) EXTENDED Full HD 1080p Latino descargar gratis, descargar G.I. Joe 2: El contraataque (2013) EXTENDED Full HD 1080p Latino pelicula latino, G.I. Joe 2: El contraataque (2013) EXTENDED Full HD 1080p Latino 1 link mega, G.I. Joe 2: El contraataque (2013) EXTENDED Full HD 1080p Latino 1 link google drive, G.I. Joe 2: El contraataque (2013) EXTENDED Full HD 1080p Latino hd 1080p latino.
Comentarios 1
  • ocpgaiden - 19 agosto, 2021

    Gracias y saludos