×

¿Problemas para descargar con Mozilla, EDGE? Deshabilita la opción "Abrir vinculos en una pestaña nueva" tal como lo muestra ésta imagen.

G.I. Jane (1997) REMUX 1080p Latino – CMHDD

467 vistas

Información de G.I. Jane (1997) REMUX 1080p Latino – CMHDD

Datos de la película

  • Calidad: Full 1080p
  • Audio: Se especifica abajo de la Sinopsis
  • Subtitulos: Español Latino PGS
  • Resolución: 1920x1080p
  • Formato: MKV
  • Codec: H.264
  • Encoder: Dracarys
  • Mediainfo: Clic para Mostrar Datos Ver
  • Format                      : Matroska
    Format version              : Version 4
    File size                   : 18.8 GiB
    Duration                    : 1 h 55 min
    Overall bit rate mode       : Variable
    Overall bit rate            : 23.4 Mb/s
    Movie name                  : G.I. Jane (1997) REMUX 1080p Latino - CMHDD
    Encoded date                : UTC 2022-02-02 17:13:52
    Writing application         : mkvmerge v17.0.0 ('Be Ur Friend') 64-bit
    Writing library             : libebml v1.3.5 + libmatroska v1.4.8

    Video
    ID                          : 1
    Format                      : AVC
    Format/Info                 : Advanced Video Codec
    Format profile              : High@L4.1
    Format settings             : CABAC / 3 Ref Frames
    Format settings, CABAC      : Yes
    Format settings, Reference  : 3 frames
    Codec ID                    : V_MPEG4/ISO/AVC
    Duration                    : 1 h 55 min
    Bit rate mode               : Variable
    Bit rate                    : 18.1 Mb/s
    Maximum bit rate            : 40.0 Mb/s
    Width                       : 1 920 pixels
    Height                      : 1 080 pixels
    Display aspect ratio        : 16:9
    Frame rate mode             : Constant
    Frame rate                  : 23.976 (24000/1001) FPS
    Standard                    : NTSC
    Color space                 : YUV
    Chroma subsampling          : 4:2:0
    Bit depth                   : 8 bits
    Scan type                   : Progressive
    Bits/(Pixel*Frame)          : 0.364
    Stream size                 : 14.6 GiB (77%)
    Default                     : Yes
    Forced                      : No
    Color range                 : Limited
    Color primaries             : BT.709
    Transfer characteristics    : BT.709
    Matrix coefficients         : BT.709

    Audio #1
    ID                          : 2
    Format                      : PCM
    Format settings             : Little / Signed
    Codec ID                    : A_PCM/INT/LIT
    Duration                    : 1 h 55 min
    Bit rate mode               : Constant
    Bit rate                    : 4 608 kb/s
    Channel(s)                  : 6 channels
    Sampling rate               : 48.0 kHz
    Frame rate                  : 200.000 FPS (240 SPF)
    Bit depth                   : 16 bits
    Stream size                 : 3.71 GiB (20%)
    Language                    : English
    Default                     : No
    Forced                      : No

    Audio #2
    ID                          : 3
    Format                      : AC-3
    Format/Info                 : Audio Coding 3
    Commercial name             : Dolby Digital
    Codec ID                    : A_AC3
    Duration                    : 1 h 55 min
    Bit rate mode               : Constant
    Bit rate                    : 640 kb/s
    Channel(s)                  : 6 channels
    Channel layout              : L R C LFE Ls Rs
    Sampling rate               : 48.0 kHz
    Frame rate                  : 31.250 FPS (1536 SPF)
    Compression mode            : Lossy
    Delay relative to video     : 12 ms
    Stream size                 : 528 MiB (3%)
    Language                    : Spanish
    Service kind                : Complete Main
    Default                     : Yes
    Forced                      : No

    Text #1
    ID                          : 4
    Format                      : PGS
    Muxing mode                 : zlib
    Codec ID                    : S_HDMV/PGS
    Codec ID/Info               : Picture based subtitle format used on BDs/HD-DVDs
    Duration                    : 1 h 54 min
    Bit rate                    : 53.8 kb/s
    Count of elements           : 2792
    Stream size                 : 44.0 MiB (0%)
    Language                    : Spanish
    Default                     : No
    Forced                      : No

    Text #2
    ID                          : 5
    Format                      : PGS
    Muxing mode                 : zlib
    Codec ID                    : S_HDMV/PGS
    Codec ID/Info               : Picture based subtitle format used on BDs/HD-DVDs
    Duration                    : 1 h 35 min
    Bit rate                    : 582 b/s
    Count of elements           : 21
    Stream size                 : 408 KiB (0%)
    Language                    : Spanish
    Default                     : No
    Forced                      : No

    Menu
    00:00:00.000                : en:Chapter 1
    00:00:27.193                : en:Chapter 2
    00:09:36.951                : en:Chapter 3
    00:14:00.881                : en:Chapter 4
    00:19:10.816                : en:Chapter 5
    00:31:52.452                : en:Chapter 6
    00:34:55.176                : en:Chapter 7
    00:39:41.462                : en:Chapter 8
    00:43:24.268                : en:Chapter 9
    00:46:11.518                : en:Chapter 10
    00:48:10.219                : en:Chapter 11
    00:54:00.737                : en:Chapter 12
    01:01:13.503                : en:Chapter 13
    01:05:39.518                : en:Chapter 14
    01:15:26.604                : en:Chapter 15
    01:22:09.925                : en:Chapter 16
    01:23:49.357                : en:Chapter 17
    01:27:36.167                : en:Chapter 18
    01:33:39.572                : en:Chapter 19
    01:39:17.701                : en:Chapter 20
    01:44:28.428                : en:Chapter 21
    01:52:05.093                : en:Chapter 22
    01:58:09.207                : en:Chapter 23
    02:05:14.423                : en:Chapter 24

  • Peso: 18.8 GiB

Sinopsis

Las presiones de una senadora del Congreso de los EE.UU. convierten a la teniente Jordan O ́Neil en la primera mujer de una unidad de élite del ejército estadounidense. En el fondo, nadie espera que supere un régimen de entrenamiento severísimo que el sesenta por ciento de los reclutas masculinos no consiguen terminar. Sin embargo O ́Neil está dispuesta a demostrar que todo el mundo se equivoca.

 

Latino: AC3 5.1  –  Inglés: PCM 5.1

Ficha técnica

  • Titulo original: G.I. Jane
  • Fecha de lanzamiento: 19-08-1997 (United States of America)
  • Director: Ridley Scott
  • Género: Acción, Drama

Video trailer de la película

Enlaces de descarga

Rip de Bluray

Descargar G.I. Jane (1997) REMUX 1080p Latino – CMHDD


Aportes de DPeliculasHDmega la pass es:dpeliculashdmega.org Aportes de CinemaniaHD la pass es:cinemaniahdd.com
Guardado en : Acción , Drama

Películas relacionadas

descargar G.I. Jane (1997) REMUX 1080p Latino – CMHDD Full 1080p 1080p gratis, G.I. Jane (1997) REMUX 1080p Latino – CMHDD Full 1080p mega 1 link, G.I. Jane (1997) REMUX 1080p Latino – CMHDD Full 1080p pelicula completa, descargar G.I. Jane (1997) REMUX 1080p Latino – CMHDD Full 1080p gratis en mega.

G.I. Jane (1997) REMUX 1080p Latino – CMHDD pelicula full hd, G.I. Jane (1997) REMUX 1080p Latino – CMHDD mega latino, G.I. Jane (1997) REMUX 1080p Latino – CMHDD 4k latino, G.I. Jane (1997) REMUX 1080p Latino – CMHDD pelicula completa, G.I. Jane (1997) REMUX 1080p Latino – CMHDD descargar gratis, descargar G.I. Jane (1997) REMUX 1080p Latino – CMHDD pelicula latino, G.I. Jane (1997) REMUX 1080p Latino – CMHDD 1 link mega, G.I. Jane (1997) REMUX 1080p Latino – CMHDD 1 link google drive, G.I. Jane (1997) REMUX 1080p Latino – CMHDD hd 1080p latino.
Comentarios 0