×

¿Problemas para descargar con Mozilla, EDGE? Deshabilita la opción "Abrir vinculos en una pestaña nueva" tal como lo muestra ésta imagen.

Futurama (2023) Temporada 11 WEB-DL 1080p Latino

333 vistas

Información de Futurama (2023) Temporada 11 WEB-DL 1080p Latino

Datos de la película

  • Calidad: WEBDL
  • Audio: Español Latino AC3 5.1 WEB-DL - Ingles AC3 5.1 WEB-DL
  • Subtitulos: Español Latino SRT- FORZADOS SRT
  • Resolución: 1920x1080p
  • Formato: MKV
  • Codec: H.264
  • Encoder: Melkor
  • Mediainfo: Clic para Mostrar Datos Ver
  • Futurama S11E02 (2023) WEB-DL 1080p Latino.mkv
    Format                      : Matroska
    Format version              : Version 4
    File size                   : 802 MiB
    Duration                    : 24 min 46 s
    Overall bit rate mode       : Variable
    Overall bit rate            : 4 528 kb/s
    Movie name                  : CinemaniaHDD.Net
    Encoded date                : UTC 2023-08-01 06:45:43
    Writing application         : mkvmerge v56.1.0 ('My Friend') 64-bit
    Writing library             : libebml v1.4.2 + libmatroska v1.6.4
    Attachments                 : CINEMANIAHD.png
    Site                        : CinemaniaHDD.Net
    Uploader                    : Melkor

    Video
    ID                          : 1
    Format                      : AVC
    Format/Info                 : Advanced Video Codec
    Format profile              : High@L4
    Format settings             : CABAC / 4 Ref Frames
    Format settings, CABAC      : Yes
    Format settings, Reference  : 4 frames
    Codec ID                    : V_MPEG4/ISO/AVC
    Duration                    : 24 min 46 s
    Bit rate mode               : Variable
    Bit rate                    : 4 013 kb/s
    Maximum bit rate            : 12.7 Mb/s
    Width                       : 1 920 pixels
    Height                      : 1 080 pixels
    Display aspect ratio        : 16:9
    Frame rate mode             : Constant
    Frame rate                  : 23.976 (24000/1001) FPS
    Color space                 : YUV
    Chroma subsampling          : 4:2:0
    Bit depth                   : 8 bits
    Scan type                   : Progressive
    Bits/(Pixel*Frame)          : 0.081
    Stream size                 : 711 MiB (89%)
    Title                       : WEB HD1080p [CinemaniaHDD]
    Default                     : Yes
    Forced                      : No
    Color range                 : Limited
    Color primaries             : BT.709
    Transfer characteristics    : BT.709
    Matrix coefficients         : BT.709

    Audio #1
    ID                          : 2
    Format                      : E-AC-3
    Format/Info                 : Enhanced AC-3
    Commercial name             : Dolby Digital Plus
    Codec ID                    : A_EAC3
    Duration                    : 24 min 46 s
    Bit rate mode               : Constant
    Bit rate                    : 256 kb/s
    Channel(s)                  : 6 channels
    Channel layout              : L R C LFE Ls Rs
    Sampling rate               : 48.0 kHz
    Frame rate                  : 31.250 FPS (1536 SPF)
    Compression mode            : Lossy
    Stream size                 : 45.4 MiB (6%)
    Title                       : Español Latino [CinemaniaHDD]
    Language                    : Spanish
    Service kind                : Complete Main
    Default                     : Yes
    Forced                      : No

    Audio #2
    ID                          : 3
    Format                      : E-AC-3
    Format/Info                 : Enhanced AC-3
    Commercial name             : Dolby Digital Plus
    Codec ID                    : A_EAC3
    Duration                    : 24 min 46 s
    Bit rate mode               : Constant
    Bit rate                    : 256 kb/s
    Channel(s)                  : 6 channels
    Channel layout              : L R C LFE Ls Rs
    Sampling rate               : 48.0 kHz
    Frame rate                  : 31.250 FPS (1536 SPF)
    Compression mode            : Lossy
    Stream size                 : 45.4 MiB (6%)
    Title                       : Ingles [CinemaniaHDD]
    Language                    : English
    Service kind                : Complete Main
    Default                     : No
    Forced                      : No

    Text #1
    ID                          : 4
    Format                      : UTF-8
    Codec ID                    : S_TEXT/UTF8
    Codec ID/Info               : UTF-8 Plain Text
    Duration                    : 18 min 33 s
    Bit rate                    : 3 b/s
    Count of elements           : 21
    Stream size                 : 499 Bytes (0%)
    Title                       : Forzados-SRT [CinemaniaHDD]
    Language                    : Spanish
    Default                     : Yes
    Forced                      : No

    Text #2
    ID                          : 5
    Format                      : UTF-8
    Codec ID                    : S_TEXT/UTF8
    Codec ID/Info               : UTF-8 Plain Text
    Duration                    : 24 min 24 s
    Bit rate                    : 68 b/s
    Count of elements           : 368
    Stream size                 : 12.3 KiB (0%)
    Title                       : Español-SRT [CinemaniaHDD]
    Language                    : Spanish
    Default                     : No
    Forced                      : No

    Text #3
    ID                          : 6
    Format                      : UTF-8
    Codec ID                    : S_TEXT/UTF8
    Codec ID/Info               : UTF-8 Plain Text
    Duration                    : 23 min 1 s
    Bit rate                    : 76 b/s
    Count of elements           : 419
    Stream size                 : 12.9 KiB (0%)
    Title                       : Ingles-SRT [CinemaniaHDD]
    Language                    : English
    Default                     : No
    Forced                      : No

  • Peso: 800 MiB Aprox C/U -- 8.26 GiB -- 10 Chapters

Sinopsis

Descargar Futurama (2023) Temporada 11 WEB-DL 1080p Latino. Serie de animación creada por Matt Groening (creador también de Los Simpson) y David X. Cohen (guionista también de Los Simpson). Ambientada en la ciudad de «Nueva Nueva York» en el año 3000, la serie comienza con Philip J. Fry, un joven repartidor de pizza neoyorquino fracasado y desmotivado que es criogénicamente congelado por accidente la Nochevieja de 1999. Mil años después es descongelado, encontrándose en Nueva Nueva York el 31 de diciembre de 2999. El intento de Fry por escapar de la entonces obligatoria asignación laboral como repartidor termina cuando es contratado en Planet Express, una pequeña compañía de mensajería intergaláctica propiedad de su sobrino lejano, como repartidor. La serie trata sobre las aventuras de Fry y sus colegas cuando viajan por el universo haciendo repartos para Planet Express.

Ficha técnica

Video trailer de la película

Enlaces de descarga

Rip de Bluray

Descargar Futurama (2023) Temporada 11 WEB-DL 1080p Latino




Aportes de DPeliculasHDmega la pass es:dpeliculashdmega.org Aportes de CinemaniaHD la pass es:cinemaniahdd.com Aportes recientes:cinemaniahdd.net

Películas relacionadas

  • Viviendo con mi ex (2006) REMUX 1080p Latino-CMHDD

    Viviendo con mi ex (2006) REMUX 1080p Latino-CMHDD

    2006
    Viviendo con mi ex (2006) REMUX 1080p Latino-CMHDD

    1h 46m 2006

    Descargar Viviendo con mi ex (2006) REMUX 1080p Latino-CMHDD. Relato sobre las consecuencias de una ruptura...

    Director: Todd Amateau

    Género: Comedia

    Actores: William Dick

  • The Lego Movie (2014) REMUX 4K HDR Latino – CMHDD

    The Lego Movie (2014) REMUX 4K HDR Latino – CMHDD

    2014
    The Lego Movie (2014) REMUX 4K HDR Latino – CMHDD

    1h 40m 2014

    Película basada en los clásicos juguetes LEGO. Emmet, el protagonista de la película, trabaja como...

    Director: Vernessa Cook

    Género: Animación

    Actores: Will Forte

  • The Lego Movie (2014) REMUX 1080p Latino – CMHDD

    The Lego Movie (2014) REMUX 1080p Latino – CMHDD

    2014
    The Lego Movie (2014) REMUX 1080p Latino – CMHDD

    1h 40m 2014

    Película basada en los clásicos juguetes LEGO. Emmet, el protagonista de la película, trabaja como...

    Director: Vernessa Cook

    Género: Animación

    Actores: Will Forte

descargar Futurama (2023) Temporada 11 WEB-DL 1080p Latino WEBDL 1080p gratis, Futurama (2023) Temporada 11 WEB-DL 1080p Latino WEBDL mega 1 link, Futurama (2023) Temporada 11 WEB-DL 1080p Latino WEBDL serie completa, descargar Futurama (2023) Temporada 11 WEB-DL 1080p Latino WEBDL gratis en mega.

Futurama (2023) Temporada 11 WEB-DL 1080p Latino pelicula full hd, Futurama (2023) Temporada 11 WEB-DL 1080p Latino mega latino, Futurama (2023) Temporada 11 WEB-DL 1080p Latino 4k latino, Futurama (2023) Temporada 11 WEB-DL 1080p Latino pelicula completa, Futurama (2023) Temporada 11 WEB-DL 1080p Latino descargar gratis, descargar Futurama (2023) Temporada 11 WEB-DL 1080p Latino pelicula latino, Futurama (2023) Temporada 11 WEB-DL 1080p Latino 1 link mega, Futurama (2023) Temporada 11 WEB-DL 1080p Latino 1 link google drive, Futurama (2023) Temporada 11 WEB-DL 1080p Latino hd 1080p latino.
Comentarios 0