×

¿Problemas para descargar con Mozilla, EDGE? Deshabilita la opción "Abrir vinculos en una pestaña nueva" tal como lo muestra ésta imagen.

Corrective Measures – Fuga de Prisión (2022) HD 1080p Latino

156 vistas

Información de Corrective Measures – Fuga de Prisión (2022) HD 1080p Latino

Datos de la película

  • Calidad: 1080p
  • Audio: Español Latino AC3 2.0 WEB-DL - Ingles AC3 5.1 BLURAY
  • Subtitulos: Español Latino SRT- FORZADOS SRT
  • Resolución: 1920x804p
  • Formato: MKV
  • Codec: H.264
  • Encoder: Melkor
  • Mediainfo: Clic para Mostrar Datos Ver
  • Corrective Measures. Fuga De Prision (2022) HD 1080p Latino.mkv
    Format                      : Matroska
    Format version              : Version 4
    File size                   : 3.79 GiB
    Duration                    : 1 h 46 min
    Overall bit rate            : 5 080 kb/s
    Movie name                  : Corrective Measures (2022) CinemaniaHDD.Net
    Encoded date                : UTC 2022-11-16 19:59:31
    Writing application         : mkvmerge v56.1.0 ('My Friend') 64-bit
    Writing library             : libebml v1.4.2 + libmatroska v1.6.4
    Attachments                 : CINEMANIAHD.png

    Video
    ID                          : 1
    Format                      : AVC
    Format/Info                 : Advanced Video Codec
    Format profile              : High@L4.1
    Format settings             : CABAC / 5 Ref Frames
    Format settings, CABAC      : Yes
    Format settings, Reference  : 5 frames
    Codec ID                    : V_MPEG4/ISO/AVC
    Duration                    : 1 h 46 min
    Bit rate                    : 4 373 kb/s
    Width                       : 1 920 pixels
    Height                      : 804 pixels
    Display aspect ratio        : 2.40:1
    Frame rate mode             : Constant
    Frame rate                  : 23.976 (24000/1001) FPS
    Color space                 : YUV
    Chroma subsampling          : 4:2:0
    Bit depth                   : 8 bits
    Scan type                   : Progressive
    Bits/(Pixel*Frame)          : 0.118
    Stream size                 : 3.26 GiB (86%)
    Title                       : HD1080p [CinemaniaHDD]
    Writing library             : x264 core 164 r3095 baee400
    Encoding settings           : cabac=1 / ref=5 / deblock=1:-3:-3 / analyse=0x3:0x133 / me=umh / subme=9 / psy=1 / psy_rd=1.00:0.00 / mixed_ref=1 / me_range=32 / chroma_me=1 / trellis=2 / 8x8dct=1 / cqm=0 / deadzone=21,11 / fast_pskip=0 / chroma_qp_offset=-2 / threads=24 / lookahead_threads=4 / sliced_threads=0 / nr=0 / decimate=0 / interlaced=0 / bluray_compat=0 / constrained_intra=0 / bframes=8 / b_pyramid=2 / b_adapt=2 / b_bias=0 / direct=3 / weightb=1 / open_gop=0 / weightp=2 / keyint=250 / keyint_min=23 / scenecut=40 / intra_refresh=0 / rc_lookahead=60 / rc=crf / mbtree=1 / crf=17.0 / qcomp=0.60 / qpmin=0 / qpmax=69 / qpstep=4 / ip_ratio=1.40 / aq=3:0.88
    Default                     : Yes
    Forced                      : Yes
    Color range                 : Limited
    Matrix coefficients         : BT.709

    Audio #1
    ID                          : 2
    Format                      : AC-3
    Format/Info                 : Audio Coding 3
    Commercial name             : Dolby Digital
    Codec ID                    : A_AC3
    Duration                    : 1 h 46 min
    Bit rate mode               : Constant
    Bit rate                    : 256 kb/s
    Channel(s)                  : 2 channels
    Channel layout              : L R
    Sampling rate               : 48.0 kHz
    Frame rate                  : 31.250 FPS (1536 SPF)
    Compression mode            : Lossy
    Stream size                 : 196 MiB (5%)
    Title                       : Español Latino [CinemaniaHDD]
    Language                    : Spanish
    Service kind                : Complete Main
    Default                     : Yes
    Forced                      : Yes

    Audio #2
    ID                          : 3
    Format                      : AC-3
    Format/Info                 : Audio Coding 3
    Commercial name             : Dolby Digital
    Codec ID                    : A_AC3
    Duration                    : 1 h 46 min
    Bit rate mode               : Constant
    Bit rate                    : 448 kb/s
    Channel(s)                  : 6 channels
    Channel layout              : L R C LFE Ls Rs
    Sampling rate               : 48.0 kHz
    Frame rate                  : 31.250 FPS (1536 SPF)
    Compression mode            : Lossy
    Stream size                 : 342 MiB (9%)
    Title                       : Ingles [CinemaniaHDD]
    Language                    : English
    Service kind                : Complete Main
    Default                     : No
    Forced                      : No

    Text #1
    ID                          : 4
    Format                      : UTF-8
    Codec ID                    : S_TEXT/UTF8
    Codec ID/Info               : UTF-8 Plain Text
    Duration                    : 4 s 838 ms
    Bit rate                    : 36 b/s
    Count of elements           : 1
    Stream size                 : 22.0 Bytes (0%)
    Title                       : Forzados-SRT [CinemaniaHDD]
    Language                    : Spanish
    Default                     : Yes
    Forced                      : Yes

    Text #2
    ID                          : 5
    Format                      : UTF-8
    Codec ID                    : S_TEXT/UTF8
    Codec ID/Info               : UTF-8 Plain Text
    Duration                    : 1 h 46 min
    Bit rate                    : 58 b/s
    Count of elements           : 1527
    Stream size                 : 45.9 KiB (0%)
    Title                       : Español-SRT [CinemaniaHDD]
    Language                    : Spanish
    Default                     : No
    Forced                      : No

    Text #3
    ID                          : 6
    Format                      : UTF-8
    Codec ID                    : S_TEXT/UTF8
    Codec ID/Info               : UTF-8 Plain Text
    Duration                    : 1 h 46 min
    Bit rate                    : 63 b/s
    Count of elements           : 1779
    Stream size                 : 49.2 KiB (0%)
    Title                       : Ingles-SRT [CinemaniaHDD]
    Language                    : English
    Default                     : No
    Forced                      : No

    Menu
    00:00:00.000                : Chapter 01
    00:06:22.257                : Chapter 02
    00:14:20.777                : Chapter 03
    00:22:59.753                : Chapter 04
    00:30:57.189                : Chapter 05
    00:41:32.824                : Chapter 06
    00:49:25.254                : Chapter 07
    00:57:27.444                : Chapter 08
    01:09:27.914                : Chapter 09
    01:19:17.336                : Chapter 10
    01:27:54.978                : Chapter 11
    01:36:27.615                : Chapter 12

  • Peso: 3.79 GiB

Sinopsis

Descargar Corrective Measures – Fuga de Prisión (2022) HD 1080p Latino. Ubicado en la penitenciaría de máxima seguridad más peligrosa del mundo, hogar de los criminales más traicioneros, las tensiones entre los reclusos y el personal aumentan, lo que lleva a la anarquía que envuelve la prisión y el orden se trastorna.

Ficha técnica

Video trailer de la película

Enlaces de descarga

Rip de Bluray

Descargar Corrective Measures – Fuga de Prisión (2022) HD 1080p Latino




Aportes de DPeliculasHDmega la pass es:dpeliculashdmega.org Aportes de CinemaniaHD la pass es:cinemaniahdd.com
Guardado en : Acción , Ciencia ficción , HD 1080p

Películas relacionadas

descargar Corrective Measures – Fuga de Prisión (2022) HD 1080p Latino 1080p 1080p gratis, Corrective Measures – Fuga de Prisión (2022) HD 1080p Latino 1080p mega 1 link, Corrective Measures – Fuga de Prisión (2022) HD 1080p Latino 1080p pelicula completa, descargar Corrective Measures – Fuga de Prisión (2022) HD 1080p Latino 1080p gratis en mega.

Corrective Measures – Fuga de Prisión (2022) HD 1080p Latino pelicula full hd, Corrective Measures – Fuga de Prisión (2022) HD 1080p Latino mega latino, Corrective Measures – Fuga de Prisión (2022) HD 1080p Latino 4k latino, Corrective Measures – Fuga de Prisión (2022) HD 1080p Latino pelicula completa, Corrective Measures – Fuga de Prisión (2022) HD 1080p Latino descargar gratis, descargar Corrective Measures – Fuga de Prisión (2022) HD 1080p Latino pelicula latino, Corrective Measures – Fuga de Prisión (2022) HD 1080p Latino 1 link mega, Corrective Measures – Fuga de Prisión (2022) HD 1080p Latino 1 link google drive, Corrective Measures – Fuga de Prisión (2022) HD 1080p Latino hd 1080p latino.
Comentarios 0