×

¿Problemas para descargar con Mozilla, EDGE? Deshabilita la opción "Abrir vinculos en una pestaña nueva" tal como lo muestra ésta imagen.

Fuera de control (2021) 4K HDR REMUX 2160p Latino

412 vistas

Información de Fuera de control (2021) 4K HDR REMUX 2160p Latino

Datos de la película

  • Calidad: 4K HDR
  • Audio: Se especifica abajo de la Sinopsis
  • Subtitulos: Español Latino SRT- FORZADOS SRT
  • Resolución: 3840x2160
  • Formato: MKV
  • Codec: HEVC
  • Encoder: cinemaniahdd
  • Mediainfo: Clic para Mostrar Datos Ver
  • Fuera de control (2021) 4K REMUX 2160p Latino [CNMNHDD].mkv
    Format                      : Matroska
    Format version              : Version 4
    File size                   : 43.8 GiB
    Duration                    : 1 h 31 min
    Overall bit rate mode       : Variable
    Overall bit rate            : 68.9 Mb/s
    Movie name                  : Fuera de control (2021) 4K REMUX - CinemaniaHDD.Net
    Encoded date                : UTC 2021-03-18 02:16:09
    Writing application         : mkvmerge v51.0.0 ('I Wish') 64-bit
    Writing library             : libebml v1.4.0 + libmatroska v1.6.2

    Video
    ID                          : 1
    Format                      : HEVC
    Format/Info                 : High Efficiency Video Coding
    Format profile              : Main 10@L5.1@High
    HDR format                  : SMPTE ST 2086, HDR10 compatible
    Codec ID                    : V_MPEGH/ISO/HEVC
    Duration                    : 1 h 31 min
    Bit rate                    : 63.6 Mb/s
    Width                       : 3 840 pixels
    Height                      : 2 160 pixels
    Display aspect ratio        : 16:9
    Frame rate mode             : Constant
    Frame rate                  : 23.976 (24000/1001) FPS
    Color space                 : YUV
    Chroma subsampling          : 4:2:0 (Type 2)
    Bit depth                   : 10 bits
    Bits/(Pixel*Frame)          : 0.319
    Stream size                 : 40.4 GiB (92%)
    Title                       : CinemaniaHDD
    Language                    : English
    Default                     : Yes
    Forced                      : No
    Color range                 : Limited
    Color primaries             : BT.2020
    Transfer characteristics    : PQ
    Matrix coefficients         : BT.2020 non-constant
    Mastering display color pri : Display P3
    Mastering display luminance : min: 0.0001 cd/m2, max: 1000 cd/m2
    Maximum Content Light Level : 1126 cd/m2
    Maximum Frame-Average Light : 144 cd/m2

    Audio #1
    ID                          : 2
    Format                      : AC-3
    Format/Info                 : Audio Coding 3
    Commercial name             : Dolby Digital
    Codec ID                    : A_AC3
    Duration                    : 1 h 31 min
    Bit rate mode               : Constant
    Bit rate                    : 640 kb/s
    Channel(s)                  : 6 channels
    Channel layout              : L R C LFE Ls Rs
    Sampling rate               : 48.0 kHz
    Frame rate                  : 31.250 FPS (1536 SPF)
    Compression mode            : Lossy
    Stream size                 : 417 MiB (1%)
    Title                       : Español latino - AC3 [CinemaniaHDD]
    Language                    : Spanish
    Service kind                : Complete Main
    Default                     : Yes
    Forced                      : No

    Audio #2
    ID                          : 3
    Format                      : E-AC-3
    Format/Info                 : Enhanced AC-3
    Commercial name             : Dolby Digital Plus
    Codec ID                    : A_EAC3
    Duration                    : 1 h 31 min
    Bit rate mode               : Constant
    Bit rate                    : 640 kb/s
    Channel(s)                  : 6 channels
    Channel layout              : L R C LFE Ls Rs
    Sampling rate               : 48.0 kHz
    Frame rate                  : 31.250 FPS (1536 SPF)
    Compression mode            : Lossy
    Stream size                 : 417 MiB (1%)
    Title                       : Español latino - E-AC3 [CinemaniaHDD]
    Language                    : Spanish
    Service kind                : Complete Main
    Default                     : No
    Forced                      : No

    Audio #3
    ID                          : 4
    Format                      : MLP FBA 16-ch
    Format/Info                 : Meridian Lossless Packing FBA with 16-channel presentation
    Commercial name             : Dolby TrueHD with Dolby Atmos
    Codec ID                    : A_TRUEHD
    Duration                    : 1 h 31 min
    Bit rate mode               : Variable
    Bit rate                    : 3 348 kb/s
    Maximum bit rate            : 5 904 kb/s
    Channel(s)                  : 8 channels
    Channel layout              : L R C LFE Ls Rs Lb Rb
    Sampling rate               : 48.0 kHz
    Frame rate                  : 1 200.000 FPS (40 SPF)
    Compression mode            : Lossless
    Stream size                 : 2.13 GiB (5%)
    Title                       : Inglés - DTS-HD [CinemaniaHDD]
    Language                    : English
    Default                     : No
    Forced                      : No
    Number of dynamic objects   : 13
    Bed channel count           : 1 channel
    Bed channel configuration   : LFE

    Audio #4
    ID                          : 5
    Format                      : AC-3
    Format/Info                 : Audio Coding 3
    Commercial name             : Dolby Digital
    Codec ID                    : A_AC3
    Duration                    : 1 h 31 min
    Bit rate mode               : Constant
    Bit rate                    : 640 kb/s
    Channel(s)                  : 6 channels
    Channel layout              : L R C LFE Ls Rs
    Sampling rate               : 48.0 kHz
    Frame rate                  : 31.250 FPS (1536 SPF)
    Compression mode            : Lossy
    Stream size                 : 417 MiB (1%)
    Title                       : Inglés - AC3 [CinemaniaHDD]
    Language                    : English
    Service kind                : Complete Main
    Default                     : No
    Forced                      : No

    Text #1
    ID                          : 6
    Format                      : UTF-8
    Codec ID                    : S_TEXT/UTF8
    Codec ID/Info               : UTF-8 Plain Text
    Duration                    : 1 h 3 min
    Bit rate                    : 0 b/s
    Count of elements           : 12
    Stream size                 : 343 Bytes (0%)
    Title                       : Forzados [CinemaniaHDD]
    Language                    : Spanish
    Default                     : Yes
    Forced                      : Yes

    Text #2
    ID                          : 7
    Format                      : UTF-8
    Codec ID                    : S_TEXT/UTF8
    Codec ID/Info               : UTF-8 Plain Text
    Duration                    : 1 h 17 min
    Bit rate                    : 53 b/s
    Count of elements           : 1065
    Stream size                 : 30.7 KiB (0%)
    Title                       : Español latino [CinemaniaHDD]
    Language                    : Spanish
    Default                     : No
    Forced                      : No

    Text #3
    ID                          : 8
    Format                      : UTF-8
    Codec ID                    : S_TEXT/UTF8
    Codec ID/Info               : UTF-8 Plain Text
    Duration                    : 1 h 24 min
    Bit rate                    : 62 b/s
    Count of elements           : 1228
    Stream size                 : 38.4 KiB (0%)
    Title                       : Inglés  [CinemaniaHDD]
    Language                    : English
    Default                     : No
    Forced                      : No

    Menu
    00:00:00.000                : en:00:00:00.000
    00:08:11.375                : en:00:08:11.375
    00:16:39.583                : en:00:16:39.583
    00:28:42.458                : en:00:28:42.458
    00:40:05.083                : en:00:40:05.083
    00:49:52.042                : en:00:49:52.042
    01:02:08.042                : en:01:02:08.042
    01:12:07.792                : en:01:12:07.792
    01:21:50.958                : en:01:21:50.958

     

  • Peso: 43.8 GiB

Sinopsis

Tom es un hombre cuya vida ha dejado de tener sentido. En pleno colapso mental se cruza en la carretera con Rachel, una joven que llega tarde a trabajar y que, nerviosa, recrimina a Tom con el claxon que no mueva su coche en un semáforo. A partir de entonces dará comienzo un peligroso juego del gato y el ratón en el que el torbellino de esta ira en la carretera traspasará cualquier límite que Rachel jamás haya imaginado. Salvaje toma como testigo la adrenalina y el pánico de otras películas con psicópatas al volante como El diablo sobre ruedas, Nunca juegues con extraños o Death Proof.

Español Latino E-AC3 5.1 + AC3 WEB-DL – Ingles TruHD 7.1 + AC3 5.1 BD

Ficha técnica

Video trailer de la película

Enlaces de descarga

Rip de Bluray

Descargar Fuera de control (2021) 4K HDR REMUX 2160p Latino


Aportes de DPeliculasHDmega la pass es:dpeliculashdmega.org Aportes de CinemaniaHD la pass es:cinemaniahdd.com
Guardado en : 4K HDR , 4K UHD , Acción , Suspenso

Películas relacionadas

descargar Fuera de control (2021) 4K HDR REMUX 2160p Latino 4K HDR 1080p gratis, Fuera de control (2021) 4K HDR REMUX 2160p Latino 4K HDR mega 1 link, Fuera de control (2021) 4K HDR REMUX 2160p Latino 4K HDR pelicula completa, descargar Fuera de control (2021) 4K HDR REMUX 2160p Latino 4K HDR gratis en mega.

Fuera de control (2021) 4K HDR REMUX 2160p Latino pelicula full hd, Fuera de control (2021) 4K HDR REMUX 2160p Latino mega latino, Fuera de control (2021) 4K HDR REMUX 2160p Latino 4k latino, Fuera de control (2021) 4K HDR REMUX 2160p Latino pelicula completa, Fuera de control (2021) 4K HDR REMUX 2160p Latino descargar gratis, descargar Fuera de control (2021) 4K HDR REMUX 2160p Latino pelicula latino, Fuera de control (2021) 4K HDR REMUX 2160p Latino 1 link mega, Fuera de control (2021) 4K HDR REMUX 2160p Latino 1 link google drive, Fuera de control (2021) 4K HDR REMUX 2160p Latino hd 1080p latino.
Comentarios 0