×

¿Problemas para descargar con Mozilla, EDGE? Deshabilita la opción "Abrir vinculos en una pestaña nueva" tal como lo muestra ésta imagen.

FUBAR (2023) Temporada 1 NF WEB-DL 1080p Latino

287 vistas

Información de FUBAR (2023) Temporada 1 NF WEB-DL 1080p Latino

Datos de la película

  • Calidad: WEBDL
  • Audio: Español Latino E-AC3 5.1 Netflix - Ingles E-AC3 5.1 Netflix
  • Subtitulos: Español Latino SRT- FORZADOS SRT
  • Resolución: 1920x1080p
  • Formato: MKV
  • Codec: H.264
  • Encoder: Melkor
  • Mediainfo: Clic para Mostrar Datos Ver
  • FUBAR S01E01 (2023) NF WEB-DL 1080p Latino.mkv
    Format                      : Matroska
    Format version              : Version 4
    File size                   : 2.39 GiB
    Duration                    : 55 min 23 s
    Overall bit rate mode       : Variable
    Overall bit rate            : 6 180 kb/s
    Movie name                  : FUBAR - S01E01.Take.Your.Daughter.To.Work.Day CinemaniaHDD.Net
    Encoded date                : UTC 2023-05-25 21:40:58
    Writing application         : mkvmerge v56.1.0 ('My Friend') 64-bit
    Writing library             : libebml v1.4.2 + libmatroska v1.6.4
    Attachments                 : CINEMANIAHD.png
    Site                        : CinemaniaHDD.Net
    Uploader                    : Melkor

    Video
    ID                          : 1
    Format                      : AVC
    Format/Info                 : Advanced Video Codec
    Format profile              : Main@L4
    Format settings             : CABAC / 3 Ref Frames
    Format settings, CABAC      : Yes
    Format settings, Reference  : 3 frames
    Codec ID                    : V_MPEG4/ISO/AVC
    Duration                    : 55 min 23 s
    Bit rate mode               : Variable
    Bit rate                    : 5 000 kb/s
    Maximum bit rate            : 7 500 kb/s
    Width                       : 1 920 pixels
    Height                      : 1 080 pixels
    Display aspect ratio        : 16:9
    Frame rate mode             : Constant
    Frame rate                  : 23.976 (24000/1001) FPS
    Color space                 : YUV
    Chroma subsampling          : 4:2:0
    Bit depth                   : 8 bits
    Scan type                   : Progressive
    Bits/(Pixel*Frame)          : 0.101
    Stream size                 : 1.85 GiB (77%)
    Title                       : WEB HD1080p [CinemaniaHDD]
    Writing library             : x264 core 148 r2727 7d026e8
    Encoding settings           : cabac=1 / ref=3 / deblock=1:0:0 / analyse=0x1:0x111 / me=umh / subme=10 / psy=1 / psy_rd=1.00:0.00 / mixed_ref=1 / me_range=24 / chroma_me=1 / trellis=2 / 8x8dct=0 / cqm=0 / deadzone=21,11 / fast_pskip=1 / chroma_qp_offset=-2 / threads=8 / lookahead_threads=1 / sliced_threads=0 / nr=0 / decimate=1 / interlaced=0 / bluray_compat=0 / stitchable=1 / constrained_intra=0 / bframes=2 / b_pyramid=0 / b_adapt=2 / b_bias=0 / direct=3 / weightb=1 / open_gop=0 / weightp=2 / keyint=48 / keyint_min=25 / scenecut=0 / intra_refresh=0 / rc_lookahead=48 / rc=2pass / mbtree=1 / bitrate=5000 / ratetol=1.0 / qcomp=0.50 / qpmin=6 / qpmax=51 / qpstep=4 / cplxblur=20.0 / qblur=0.5 / vbv_maxrate=7500 / vbv_bufsize=10000 / nal_hrd=vbr / filler=0 / ip_ratio=1.40 / aq=1:1.00
    Language                    : English
    Default                     : Yes
    Forced                      : Yes

    Audio #1
    ID                          : 2
    Format                      : E-AC-3
    Format/Info                 : Enhanced AC-3
    Commercial name             : Dolby Digital Plus
    Codec ID                    : A_EAC3
    Duration                    : 55 min 23 s
    Bit rate mode               : Constant
    Bit rate                    : 640 kb/s
    Channel(s)                  : 6 channels
    Channel layout              : L R C LFE Ls Rs
    Sampling rate               : 48.0 kHz
    Frame rate                  : 31.250 FPS (1536 SPF)
    Compression mode            : Lossy
    Stream size                 : 254 MiB (10%)
    Title                       : Español Latino [CinemaniaHDD]
    Language                    : Spanish
    Service kind                : Complete Main
    Default                     : Yes
    Forced                      : Yes

    Audio #2
    ID                          : 3
    Format                      : E-AC-3 JOC
    Format/Info                 : Enhanced AC-3 with Joint Object Coding
    Commercial name             : Dolby Digital Plus with Dolby Atmos
    Codec ID                    : A_EAC3
    Duration                    : 55 min 23 s
    Bit rate mode               : Constant
    Bit rate                    : 768 kb/s
    Channel(s)                  : 6 channels
    Channel layout              : L R C LFE Ls Rs
    Sampling rate               : 48.0 kHz
    Frame rate                  : 31.250 FPS (1536 SPF)
    Compression mode            : Lossy
    Stream size                 : 304 MiB (12%)
    Title                       : Ingles [CinemaniaHDD]
    Language                    : English
    Service kind                : Complete Main
    Default                     : No
    Forced                      : No
    Complexity index            : 16
    Number of dynamic objects   : 15
    Bed channel count           : 1 channel
    Bed channel configuration   : LFE

    Text #1
    ID                          : 4
    Format                      : UTF-8
    Codec ID                    : S_TEXT/UTF8
    Codec ID/Info               : UTF-8 Plain Text
    Duration                    : 53 min 48 s
    Bit rate                    : 1 b/s
    Count of elements           : 25
    Stream size                 : 734 Bytes (0%)
    Title                       : Forzados-SRT [CinemaniaHDD]
    Language                    : Spanish
    Default                     : Yes
    Forced                      : Yes

    Text #2
    ID                          : 5
    Format                      : UTF-8
    Codec ID                    : S_TEXT/UTF8
    Codec ID/Info               : UTF-8 Plain Text
    Duration                    : 53 min 48 s
    Bit rate                    : 72 b/s
    Count of elements           : 851
    Stream size                 : 28.4 KiB (0%)
    Title                       : Español-SRT [CinemaniaHDD]
    Language                    : Spanish
    Default                     : No
    Forced                      : No

    Text #3
    ID                          : 6
    Format                      : UTF-8
    Codec ID                    : S_TEXT/UTF8
    Codec ID/Info               : UTF-8 Plain Text
    Duration                    : 51 min 31 s
    Bit rate                    : 86 b/s
    Count of elements           : 928
    Stream size                 : 32.5 KiB (0%)
    Title                       : Ingles-SRT [CinemaniaHDD]
    Language                    : English
    Default                     : No
    Forced                      : No

  • Peso: 2.4 GiB Aprox C/U. - 18.4 GiB - 8 Chapters

Sinopsis

Descargar FUBAR (2023) Temporada 1 NF WEB-DL 1080p Latino. Un veterano agente de la CIA acepta una misión final antes de retirarse definitivamente, pero durante dicha misión descubre que su hija también trabaja encubierta para la CIA.

Ficha técnica

Video trailer de la película

Enlaces de descarga

Rip de Bluray

Descargar FUBAR (2023) Temporada 1 NF WEB-DL 1080p Latino




Aportes de DPeliculasHDmega la pass es:dpeliculashdmega.org Aportes de CinemaniaHD la pass es:cinemaniahdd.com Aportes recientes:cinemaniahdd.net

Películas relacionadas

  • Perra vida (2024) AMZN WEB-DL 1080p Latino

    Perra vida (2024) AMZN WEB-DL 1080p Latino

    2024
    Perra vida (2024) AMZN WEB-DL 1080p Latino

    1h 48m 2024

    Descargar Perra vida (2024) AMZN WEB-DL 1080p Latino. Para contentar a su hija, Romina (una abogada obsesiva...

    Director: Gabriela Sobarzo

    Género: Comedia

    Actores: Sergio Chamy

  • The Veil (2024) Temporada 1 WEB-DL 1080p Latino

    The Veil (2024) Temporada 1 WEB-DL 1080p Latino

    2024
    The Veil (2024) Temporada 1 WEB-DL 1080p Latino

    0h 0m 2024

    Descargar The Veil (2024) Temporada 1 WEB-DL 1080p Latino. La relación entre dos mujeres que arman un...

    Director: Steven Knight

    Género: Drama

    Actores: Yumna Marwan

  • Kung Fu Panda 4 (2024) 1080p Latino-CMHDD

    Kung Fu Panda 4 (2024) 1080p Latino-CMHDD

    2024
    Kung Fu Panda 4 (2024) 1080p Latino-CMHDD

    1h 34m 2024

    Descargar Kung Fu Panda 4 (2024) 1080p Latino-CMHDD. Po se prepara para ser el líder espiritual del...

    Director: Stephanie Ma Stine

    Género: Acción

    Actores: Viola Davis

  • Kung Fu Panda 4 (2024) Full HD 1080p Latino-CMHDD

    Kung Fu Panda 4 (2024) Full HD 1080p Latino-CMHDD

    2024
    Kung Fu Panda 4 (2024) Full HD 1080p Latino-CMHDD

    1h 34m 2024

    Descargar Kung Fu Panda 4 (2024) Full HD 1080p Latino-CMHDD. Po se prepara para ser el líder espiritual...

    Director: Stephanie Ma Stine

    Género: Acción

    Actores: Viola Davis

descargar FUBAR (2023) Temporada 1 NF WEB-DL 1080p Latino WEBDL 1080p gratis, FUBAR (2023) Temporada 1 NF WEB-DL 1080p Latino WEBDL mega 1 link, FUBAR (2023) Temporada 1 NF WEB-DL 1080p Latino WEBDL serie completa, descargar FUBAR (2023) Temporada 1 NF WEB-DL 1080p Latino WEBDL gratis en mega.

FUBAR (2023) Temporada 1 NF WEB-DL 1080p Latino pelicula full hd, FUBAR (2023) Temporada 1 NF WEB-DL 1080p Latino mega latino, FUBAR (2023) Temporada 1 NF WEB-DL 1080p Latino 4k latino, FUBAR (2023) Temporada 1 NF WEB-DL 1080p Latino pelicula completa, FUBAR (2023) Temporada 1 NF WEB-DL 1080p Latino descargar gratis, descargar FUBAR (2023) Temporada 1 NF WEB-DL 1080p Latino pelicula latino, FUBAR (2023) Temporada 1 NF WEB-DL 1080p Latino 1 link mega, FUBAR (2023) Temporada 1 NF WEB-DL 1080p Latino 1 link google drive, FUBAR (2023) Temporada 1 NF WEB-DL 1080p Latino hd 1080p latino.
Comentarios 0