×

¿Problemas para descargar con Mozilla, EDGE? Deshabilita la opción "Abrir vinculos en una pestaña nueva" tal como lo muestra ésta imagen.

Frozen II (2019) WEB-DL 1080p Latino

3.286 vistas

Información de Frozen II (2019) WEB-DL 1080p Latino

Datos de la película

  • Calidad: WEBDL
  • Audio: Español Latino AC3 2.0 iTunes - Ingles AC3 5.1 iTunes
  • Subtitulos: Español Latino SRT- FORZADOS SRT
  • Resolución: 1920x804
  • Formato: MKV
  • Codec: H.264
  • Encoder: cinemaniahd
  • Mediainfo: Clic para Mostrar Datos Ver
  • Frozen 2 (2019) WEB-DL 1080p Latino.mkv
    Format                      : Matroska
    Format version              : Version 4
    File size                   : 3.75 GiB
    Duration                    : 1 h 44 min
    Overall bit rate            : 5 156 kb/s
    Movie name                  : Frozen 2 (2019) WEB-DL 1080p Latino
    Encoded date                : UTC 2020-02-11 05:32:19
    Writing application         : mkvmerge v42.0.0 ('Overtime') 64-bit
    Writing library             : libebml v1.3.10 + libmatroska v1.5.2

    Video
    ID                          : 1
    Format                      : AVC
    Format/Info                 : Advanced Video Codec
    Format profile              : High@L4
    Format settings             : CABAC / 5 Ref Frames
    Format settings, CABAC      : Yes
    Format settings, ReFrames   : 5 frames
    Codec ID                    : V_MPEG4/ISO/AVC
    Duration                    : 1 h 44 min
    Bit rate                    : 4 519 kb/s
    Width                       : 1 920 pixels
    Height                      : 804 pixels
    Display aspect ratio        : 2.40:1
    Frame rate mode             : Constant
    Frame rate                  : 23.976 FPS
    Color space                 : YUV
    Chroma subsampling          : 4:2:0
    Bit depth                   : 8 bits
    Scan type                   : Progressive
    Bits/(Pixel*Frame)          : 0.122
    Stream size                 : 3.29 GiB (88%)
    Title                       : CinemaniaHDD
    Language                    : English
    Default                     : Yes
    Forced                      : No
    Color range                 : Limited
    Color primaries             : BT.709
    Transfer characteristics    : BT.709
    Matrix coefficients         : BT.709

    Audio #1
    ID                          : 2
    Format                      : AC-3
    Format/Info                 : Audio Coding 3
    Commercial name             : Dolby Digital
    Codec ID                    : A_AC3
    Duration                    : 1 h 43 min
    Bit rate mode               : Constant
    Bit rate                    : 256 kb/s
    Channel(s)                  : 2 channels
    Channel layout              : L R
    Sampling rate               : 48.0 kHz
    Frame rate                  : 31.250 FPS (1536 SPF)
    Bit depth                   : 16 bits
    Compression mode            : Lossy
    Stream size                 : 189 MiB (5%)
    Title                       : Español latino [CinemaniaHDD]
    Language                    : Spanish
    Service kind                : Complete Main
    Default                     : No
    Forced                      : No

    Audio #2
    ID                          : 3
    Format                      : AC-3
    Format/Info                 : Audio Coding 3
    Commercial name             : Dolby Digital
    Codec ID                    : A_AC3
    Duration                    : 1 h 43 min
    Bit rate mode               : Constant
    Bit rate                    : 384 kb/s
    Channel(s)                  : 6 channels
    Channel layout              : L R C LFE Ls Rs
    Sampling rate               : 48.0 kHz
    Frame rate                  : 31.250 FPS (1536 SPF)
    Bit depth                   : 16 bits
    Compression mode            : Lossy
    Stream size                 : 283 MiB (7%)
    Title                       : Inglés [CinemaniaHDD]
    Language                    : English
    Service kind                : Complete Main
    Default                     : Yes
    Forced                      : No

    Text
    ID                          : 4
    Format                      : UTF-8
    Codec ID                    : S_TEXT/UTF8
    Codec ID/Info               : UTF-8 Plain Text
    Duration                    : 1 h 41 min
    Bit rate                    : 53 b/s
    Count of elements           : 1311
    Stream size                 : 39.4 KiB (0%)
    Title                       : Español latino [CinemaniaHDD]
    Language                    : Spanish
    Default                     : Yes
    Forced                      : No

    Menu
    00:00:00.000                : en:1
    00:05:41.758                : en:2
    00:08:26.881                : en:3
    00:15:00.566                : en:4
    00:16:28.820                : en:5
    00:21:24.282                : en:6
    00:25:44.417                : en:7
    00:29:08.078                : en:8
    00:33:44.186                : en:9
    00:40:26.379                : en:10
    00:44:37.087                : en:11
    00:47:41.478                : en:12
    00:53:03.675                : en:13
    00:55:26.401                : en:14
    01:02:35.872                : en:15
    01:09:56.686                : en:16
    01:13:47.540                : en:17
    01:19:25.793                : en:18
    01:24:27.302                : en:19
    01:31:16.419                : en:20

  • Peso: 3.75 GiB

Sinopsis

¿Por qué nació Elsa con poderes mágicos? La respuesta le está llamando y amenaza su reino. Junto con Anna, Kristoff, Olaf y Sven emprenderá un viaje peligroso e inolvidable. En ‘Frozen: El Reino del Hielo’, Elsa temía que sus poderes fueran demasiado para el mundo. En ‘Frozen 2’, deseará que sean suficientes.

Ficha técnica

Video trailer de la película

Enlaces de descarga

Rip de Bluray

Descargar Frozen II (2019) WEB-DL 1080p Latino




Aportes de DPeliculasHDmega la pass es:dpeliculashdmega.org Aportes de CinemaniaHD la pass es:cinemaniahdd.com
Guardado en : Animación , Aventura , Familia , Música

Películas relacionadas

  • Mar de sangre (2022) WEB-DL 1080p Latino

    Mar de sangre (2022) WEB-DL 1080p Latino

    2022
    Mar de sangre (2022) WEB-DL 1080p Latino

    1h 27m 2022

    Descargar Mar de sangre (2022) WEB-DL 1080p Latino. Un grupo de amigos que disfrutan de un fin de semana...

    Director: James Nunn

    Género: Acción

    Actores: Thomas Michael Flynn

  • La Princesa Prometida (1987) REMUX 1080p Latino

    La Princesa Prometida (1987) REMUX 1080p Latino

    1987
    La Princesa Prometida (1987) REMUX 1080p Latino

    1h 38m 1987

    Descargar La Princesa Prometida (1987) REMUX 1080p Latino. Después de buscar fortuna durante cinco años,...

    Director: Rob Reiner

    Género: Aventura

    Actores: Willy DeVille

  • JUNG_E (2023) NF WEB-DL 1080p Latino

    JUNG_E (2023) NF WEB-DL 1080p Latino

    2023
    JUNG_E (2023) NF WEB-DL 1080p Latino

    1h 38m 2023

    Descargar JUNG_E (2023) NF WEB-DL 1080p Latino. Siglo XXII. En un planeta Tierra inhabitable, el resultado...

    Director: Yeon Sang-Ho

    Género: Acción

    Actores: Ryu Kyung-soo

descargar Frozen II (2019) WEB-DL 1080p Latino WEBDL 1080p gratis, Frozen II (2019) WEB-DL 1080p Latino WEBDL mega 1 link, Frozen II (2019) WEB-DL 1080p Latino WEBDL pelicula completa, descargar Frozen II (2019) WEB-DL 1080p Latino WEBDL gratis en mega.

Frozen II (2019) WEB-DL 1080p Latino pelicula full hd, Frozen II (2019) WEB-DL 1080p Latino mega latino, Frozen II (2019) WEB-DL 1080p Latino 4k latino, Frozen II (2019) WEB-DL 1080p Latino pelicula completa, Frozen II (2019) WEB-DL 1080p Latino descargar gratis, descargar Frozen II (2019) WEB-DL 1080p Latino pelicula latino, Frozen II (2019) WEB-DL 1080p Latino 1 link mega, Frozen II (2019) WEB-DL 1080p Latino 1 link google drive, Frozen II (2019) WEB-DL 1080p Latino hd 1080p latino.
Comentarios 0