×

¿Problemas para descargar con Mozilla, EDGE? Deshabilita la opción "Abrir vinculos en una pestaña nueva" tal como lo muestra ésta imagen.

James Bond: Desde Rusia con Amor (1963) REMUX 1080p Latino

404 vistas

Información de James Bond: Desde Rusia con Amor (1963) REMUX 1080p Latino

Datos de la película

  • Calidad: Full 1080p
  • Audio: Español Latino AC3 5.1 BLURAY - Ingles DTS 5.1 BLURAY
  • Subtitulos: Español Latino PGS - Ingles PGS
  • Resolución: 1920x1080p
  • Formato: MKV
  • Codec: H.264
  • Encoder: CinefiloCool
  • Mediainfo: Clic para Mostrar Datos Ver
  • Desde Rusia Con Amor (1963) REMUX 1080p Latino-CMHDD.mkv
    Format                      : Matroska
    Format version              : Version 4
    File size                   : 24.8 GiB
    Duration                    : 1 h 55 min
    Overall bit rate mode       : Variable
    Overall bit rate            : 30.8 Mb/s
    Movie name                  : From Russia With Love (1963) CinemaniaHDD.Net
    Encoded date                : UTC 2020-05-24 10:08:21
    Writing application         : mkvmerge v46.0.0 ('No Deeper Escape') 64-bit
    Writing library             : libebml v1.3.10 + libmatroska v1.5.2
    Attachments                 : CINEMANIAHD.png

    Video
    ID                          : 1
    Format                      : AVC
    Format/Info                 : Advanced Video Codec
    Format profile              : High@L4.1
    Format settings             : CABAC / 4 Ref Frames
    Format settings, CABAC      : Yes
    Format settings, Reference  : 4 frames
    Codec ID                    : V_MPEG4/ISO/AVC
    Duration                    : 1 h 55 min
    Bit rate mode               : Variable
    Bit rate                    : 26.5 Mb/s
    Maximum bit rate            : 36.5 Mb/s
    Width                       : 1 920 pixels
    Height                      : 1 080 pixels
    Display aspect ratio        : 16:9
    Frame rate mode             : Constant
    Frame rate                  : 23.976 (24000/1001) FPS
    Color space                 : YUV
    Chroma subsampling          : 4:2:0
    Bit depth                   : 8 bits
    Scan type                   : Progressive
    Bits/(Pixel*Frame)          : 0.534
    Stream size                 : 21.3 GiB (86%)
    Title                       : REMUX 1080p [CinemaniaHDD]
    Default                     : Yes
    Forced                      : No
    Color range                 : Limited
    Color primaries             : BT.709
    Transfer characteristics    : BT.709
    Matrix coefficients         : BT.709

    Audio #1
    ID                          : 2
    Format                      : AC-3
    Format/Info                 : Audio Coding 3
    Commercial name             : Dolby Digital
    Codec ID                    : A_AC3
    Duration                    : 1 h 55 min
    Bit rate mode               : Constant
    Bit rate                    : 448 kb/s
    Channel(s)                  : 6 channels
    Channel layout              : L R C LFE Ls Rs
    Sampling rate               : 48.0 kHz
    Frame rate                  : 31.250 FPS (1536 SPF)
    Compression mode            : Lossy
    Stream size                 : 369 MiB (1%)
    Title                       : Español Latino [CinemaniaHDD]
    Language                    : Spanish
    Service kind                : Complete Main
    Default                     : Yes
    Forced                      : No

    Audio #2
    ID                          : 3
    Format                      : DTS XLL
    Format/Info                 : Digital Theater Systems
    Commercial name             : DTS-HD Master Audio
    Codec ID                    : A_DTS
    Duration                    : 1 h 55 min
    Bit rate mode               : Variable
    Bit rate                    : 3 801 kb/s
    Channel(s)                  : 6 channels
    Channel layout              : C L R Ls Rs LFE
    Sampling rate               : 48.0 kHz
    Frame rate                  : 93.750 FPS (512 SPF)
    Bit depth                   : 24 bits
    Compression mode            : Lossless
    Stream size                 : 3.06 GiB (12%)
    Title                       : Ingles [CinemaniaHDD]
    Language                    : English
    Default                     : No
    Forced                      : No

    Text #1
    ID                          : 4
    Format                      : PGS
    Muxing mode                 : zlib
    Codec ID                    : S_HDMV/PGS
    Codec ID/Info               : Picture based subtitle format used on BDs/HD-DVDs
    Duration                    : 1 h 50 min
    Bit rate                    : 26.5 kb/s
    Count of elements           : 2472
    Stream size                 : 21.0 MiB (0%)
    Title                       : Español-PGS [CinemaniaHDD]
    Language                    : Spanish
    Default                     : No
    Forced                      : No

    Text #2
    ID                          : 5
    Format                      : PGS
    Muxing mode                 : zlib
    Codec ID                    : S_HDMV/PGS
    Codec ID/Info               : Picture based subtitle format used on BDs/HD-DVDs
    Duration                    : 1 h 54 min
    Bit rate                    : 29.7 kb/s
    Count of elements           : 2843
    Stream size                 : 24.4 MiB (0%)
    Title                       : Ingles-PGS [CinemaniaHDD]
    Language                    : English
    Default                     : No
    Forced                      : No

    Text #3
    ID                          : 6
    Format                      : UTF-8
    Codec ID                    : S_TEXT/UTF8
    Codec ID/Info               : UTF-8 Plain Text
    Duration                    : 1 h 50 min
    Bit rate                    : 0 b/s
    Count of elements           : 9
    Stream size                 : 267 Bytes (0%)
    Title                       : Forzados-SRT [CinemaniaHDD]
    Language                    : Spanish
    Default                     : Yes
    Forced                      : No

    Text #4
    ID                          : 7
    Format                      : UTF-8
    Codec ID                    : S_TEXT/UTF8
    Codec ID/Info               : UTF-8 Plain Text
    Duration                    : 1 h 50 min
    Bit rate                    : 42 b/s
    Count of elements           : 945
    Stream size                 : 34.4 KiB (0%)
    Title                       : Español-SRT [CinemaniaHDD]
    Language                    : Spanish
    Default                     : No
    Forced                      : No

    Menu
    00:00:00.000                : en:Chapter01
    00:03:10.064                : en:Chapter02
    00:05:37.003                : en:Chapter03
    00:08:04.192                : en:Chapter04
    00:11:16.550                : en:Chapter05
    00:14:03.008                : en:Chapter06
    00:17:53.280                : en:Chapter07
    00:19:34.965                : en:Chapter08
    00:24:27.549                : en:Chapter09
    00:29:04.492                : en:Chapter10
    00:31:36.477                : en:Chapter11
    00:33:53.489                : en:Chapter12
    00:38:21.173                : en:Chapter13
    00:48:53.764                : en:Chapter14
    00:51:34.090                : en:Chapter15
    00:55:35.165                : en:Chapter16
    00:59:50.295                : en:Chapter17
    01:03:31.933                : en:Chapter18
    01:06:43.457                : en:Chapter19
    01:09:55.733                : en:Chapter20
    01:12:06.697                : en:Chapter21
    01:14:26.879                : en:Chapter22
    01:16:16.697                : en:Chapter23
    01:20:20.649                : en:Chapter24
    01:24:27.520                : en:Chapter25
    01:26:31.603                : en:Chapter26
    01:36:26.697                : en:Chapter27
    01:39:11.820                : en:Chapter28
    01:44:09.326                : en:Chapter29
    01:45:45.338                : en:Chapter30
    01:49:12.712                : en:Chapter31
    01:53:37.393                : en:Chapter32
    01:55:12.113                : en:Chapter33

  • Peso: 24.8 GiB

Sinopsis

Descargar James Bond: Desde Rusia con Amor (1963) REMUX 1080p Latino. El robo de un dispositivo capaz de descifrar complicadas comunicaciones está poniendo en peligro importantes investigaciones con respecto al gobierno ruso. James Bond, el agente 007 de los Servicios Secretos Británicos al servicio de Su Majestad, viajará hasta la Unión Soviética con el fin de encontrar a su objetivo.

Ficha técnica

Video trailer de la película

Enlaces de descarga

Rip de Bluray

Descargar James Bond: Desde Rusia con Amor (1963) REMUX 1080p Latino




Aportes de DPeliculasHDmega la pass es:dpeliculashdmega.org Aportes de CinemaniaHD la pass es:cinemaniahdd.com
Guardado en : Acción , Aventura , Remux , Suspenso

Películas relacionadas

  • La Máquina infernal (2022) WEB-DL 1080p Latino

    La Máquina infernal (2022) WEB-DL 1080p Latino

    2022
    La Máquina infernal (2022) WEB-DL 1080p Latino

    1h 47m 2022

    Descargar La Máquina infernal (2022) WEB-DL 1080p Latino. Un fan obsesivo saca de su escondite al solitario...

    Director: Andrew Hunt

    Género: Suspenso

    Actores: Rocco Salata

  • Borrego: Sal Del Camino (2022) HD 1080p Latino

    Borrego: Sal Del Camino (2022) HD 1080p Latino

    2022
    Borrego: Sal Del Camino (2022) HD 1080p Latino

    1h 42m 2022

    Descargar Borrego: Sal Del Camino (2022) HD 1080p Latino. Una joven botánica se traslada a un pequeño...

    Director: Jesse Harris

    Género: Crimen

    Actores: Olivia Trujillo

  • Borrego: Sal Del Camino (2022) REMUX 1080p Latino

    Borrego: Sal Del Camino (2022) REMUX 1080p Latino

    2022
    Borrego: Sal Del Camino (2022) REMUX 1080p Latino

    1h 42m 2022

    Descargar Borrego: Sal Del Camino (2022) REMUX 1080p Latino. Una joven botánica se traslada a un pequeño...

    Director: Jesse Harris

    Género: Crimen

    Actores: Olivia Trujillo

  • Tren Bala (2022) WEB-DL 4K UHD HDR Latino

    Tren Bala (2022) WEB-DL 4K UHD HDR Latino

    2022
    Tren Bala (2022) WEB-DL 4K UHD HDR Latino

    2h 7m 2022

    Descargar Tren Bala (2022) WEB-DL 4K UHD HDR Latino. El desafortunado asesino "Catarina" está decidido...

    Director: Paul Barry

    Género: 4K HDR

    Actores: Zooey Miyoshi

descargar James Bond: Desde Rusia con Amor (1963) REMUX 1080p Latino Full 1080p 1080p gratis, James Bond: Desde Rusia con Amor (1963) REMUX 1080p Latino Full 1080p mega 1 link, James Bond: Desde Rusia con Amor (1963) REMUX 1080p Latino Full 1080p pelicula completa, descargar James Bond: Desde Rusia con Amor (1963) REMUX 1080p Latino Full 1080p gratis en mega.

James Bond: Desde Rusia con Amor (1963) REMUX 1080p Latino pelicula full hd, James Bond: Desde Rusia con Amor (1963) REMUX 1080p Latino mega latino, James Bond: Desde Rusia con Amor (1963) REMUX 1080p Latino 4k latino, James Bond: Desde Rusia con Amor (1963) REMUX 1080p Latino pelicula completa, James Bond: Desde Rusia con Amor (1963) REMUX 1080p Latino descargar gratis, descargar James Bond: Desde Rusia con Amor (1963) REMUX 1080p Latino pelicula latino, James Bond: Desde Rusia con Amor (1963) REMUX 1080p Latino 1 link mega, James Bond: Desde Rusia con Amor (1963) REMUX 1080p Latino 1 link google drive, James Bond: Desde Rusia con Amor (1963) REMUX 1080p Latino hd 1080p latino.
Comentarios 0