×

¿Problemas para descargar con Mozilla, EDGE? Deshabilita la opción "Abrir vinculos en una pestaña nueva" tal como lo muestra ésta imagen.

Desde Paris Con Amor (2010) REMUX 1080p Latino

193 vistas

Información de Desde Paris Con Amor (2010) REMUX 1080p Latino

Datos de la película

  • Calidad: Full 1080p
  • Audio: Se especifica abajo de la Sinopsis
  • Subtitulos: Español Latino PGS - Ingles PGS
  • Resolución: 1920x1080p
  • Formato: MKV
  • Codec: H.264
  • Encoder: CinefiloCool
  • Mediainfo: Clic para Mostrar Datos Ver
  • Paris En La Mira (2010) REMUX 1080p Latino-CMHDD.mkv
    Format                      : Matroska
    Format version              : Version 4
    File size                   : 21.0 GiB
    Duration                    : 1 h 32 min
    Overall bit rate mode       : Variable
    Overall bit rate            : 32.5 Mb/s
    Movie name                  : From Paris with Love (2010) CinemaniaHDD.Net
    Encoded date                : UTC 2021-06-01 06:49:44
    Writing application         : mkvmerge v56.1.0 ('My Friend') 64-bit
    Writing library             : libebml v1.4.2 + libmatroska v1.6.4
    Attachments                 : CINEMANIAHD.png

    Video
    ID                          : 1
    Format                      : AVC
    Format/Info                 : Advanced Video Codec
    Format profile              : High@L4.1
    Format settings             : CABAC / 4 Ref Frames
    Format settings, CABAC      : Yes
    Format settings, Reference  : 4 frames
    Codec ID                    : V_MPEG4/ISO/AVC
    Duration                    : 1 h 32 min
    Bit rate mode               : Variable
    Bit rate                    : 26.9 Mb/s
    Maximum bit rate            : 35.0 Mb/s
    Width                       : 1 920 pixels
    Height                      : 1 080 pixels
    Display aspect ratio        : 16:9
    Frame rate mode             : Constant
    Frame rate                  : 23.976 (23976/1000) FPS
    Original frame rate         : 24.000 FPS
    Standard                    : NTSC
    Color space                 : YUV
    Chroma subsampling          : 4:2:0
    Bit depth                   : 8 bits
    Scan type                   : Progressive
    Bits/(Pixel*Frame)          : 0.542
    Stream size                 : 17.4 GiB (83%)
    Title                       : REMUX HD1080p [CinemaniaHDD]
    Default                     : Yes
    Forced                      : Yes
    Color range                 : Limited
    Color primaries             : BT.709
    Transfer characteristics    : BT.709
    Matrix coefficients         : BT.709

    Audio #1
    ID                          : 2
    Format                      : AC-3
    Format/Info                 : Audio Coding 3
    Commercial name             : Dolby Digital
    Codec ID                    : A_AC3
    Duration                    : 1 h 32 min
    Bit rate mode               : Constant
    Bit rate                    : 256 kb/s
    Channel(s)                  : 2 channels
    Channel layout              : L R
    Sampling rate               : 48.0 kHz
    Frame rate                  : 31.250 FPS (1536 SPF)
    Compression mode            : Lossy
    Stream size                 : 169 MiB (1%)
    Title                       : Español Latino AC3 [CinemaniaHDD]
    Language                    : Spanish
    Service kind                : Complete Main
    Default                     : Yes
    Forced                      : Yes

    Audio #2
    ID                          : 3
    Format                      : DTS XLL
    Format/Info                 : Digital Theater Systems
    Commercial name             : DTS-HD Master Audio
    Codec ID                    : A_DTS
    Duration                    : 1 h 32 min
    Bit rate mode               : Variable
    Bit rate                    : 5 107 kb/s
    Channel(s)                  : 8 channels
    Channel layout              : C L R LFE Lb Rb Lss Rss
    Sampling rate               : 48.0 kHz
    Frame rate                  : 93.750 FPS (512 SPF)
    Bit depth                   : 24 bits
    Compression mode            : Lossless
    Delay relative to video     : 4 ms
    Stream size                 : 3.29 GiB (16%)
    Title                       : Ingles [CinemaniaHDD]
    Language                    : English
    Default                     : No
    Forced                      : No

    Audio #3
    ID                          : 4
    Format                      : E-AC-3
    Format/Info                 : Enhanced AC-3
    Commercial name             : Dolby Digital Plus
    Codec ID                    : A_EAC3
    Duration                    : 1 h 32 min
    Bit rate mode               : Constant
    Bit rate                    : 224 kb/s
    Channel(s)                  : 2 channels
    Channel layout              : L R
    Sampling rate               : 48.0 kHz
    Frame rate                  : 31.250 FPS (1536 SPF)
    Compression mode            : Lossy
    Delay relative to video     : 28 ms
    Stream size                 : 148 MiB (1%)
    Title                       : Español Latino DDP [CinemaniaHDD]
    Language                    : Spanish
    Service kind                : Complete Main
    Default                     : No
    Forced                      : No

    Text #1
    ID                          : 5
    Format                      : PGS
    Muxing mode                 : zlib
    Codec ID                    : S_HDMV/PGS
    Codec ID/Info               : Picture based subtitle format used on BDs/HD-DVDs
    Duration                    : 1 h 25 min
    Bit rate                    : 35.6 kb/s
    Count of elements           : 1884
    Stream size                 : 21.8 MiB (0%)
    Title                       : Español-PGS [CinemaniaHDD]
    Language                    : Spanish
    Default                     : No
    Forced                      : No

    Text #2
    ID                          : 6
    Format                      : PGS
    Muxing mode                 : zlib
    Codec ID                    : S_HDMV/PGS
    Codec ID/Info               : Picture based subtitle format used on BDs/HD-DVDs
    Duration                    : 1 h 29 min
    Bit rate                    : 23.8 kb/s
    Count of elements           : 1888
    Stream size                 : 15.3 MiB (0%)
    Title                       : Ingles-PGS [CinemaniaHDD]
    Language                    : English
    Default                     : No
    Forced                      : No

    Text #3
    ID                          : 7
    Format                      : UTF-8
    Codec ID                    : S_TEXT/UTF8
    Codec ID/Info               : UTF-8 Plain Text
    Duration                    : 50 min 15 s
    Bit rate                    : 0 b/s
    Count of elements           : 4
    Stream size                 : 39.0 Bytes (0%)
    Title                       : Forzados-SRT [CinemaniaHDD]
    Language                    : Spanish
    Default                     : Yes
    Forced                      : Yes

    Text #4
    ID                          : 8
    Format                      : UTF-8
    Codec ID                    : S_TEXT/UTF8
    Codec ID/Info               : UTF-8 Plain Text
    Duration                    : 1 h 28 min
    Bit rate                    : 52 b/s
    Count of elements           : 1025
    Stream size                 : 33.9 KiB (0%)
    Title                       : Español-SRT [CinemaniaHDD]
    Language                    : Spanish
    Default                     : No
    Forced                      : No

    Menu
    00:00:00.000                : Checkmate
    00:06:41.484                : Dinner Plans
    00:10:17.491                : Listening In
    00:17:21.331                : Clearing Customs
    00:20:18.675                : Off The Menu
    00:24:47.819                : Something To Think About
    00:29:43.615                : Private Meeting
    00:37:39.340                : Side Effects
    00:44:23.452                : Blowing Deals
    00:49:37.516                : The Scenic Route
    00:53:12.230                : More Than You Think
    00:58:11.946                : Perfect Match
    01:05:33.429                : After Her
    01:12:38.771                : Heavy Metal
    01:18:35.043                : High Security
    01:25:38.925                : Slight Delay

  • Peso: 21.0 GiB

Sinopsis

Descargar Desde Paris Con Amor [Paris En La Mira] (2010) REMUX 1080p Latino. A Charlie Wax (John Travolta), un singular agente secreto estadounidense, le ha sido encomendada en París una misión de alto riesgo relacionada con el terrorismo y el tráfico de cocaína. El problema es que tropezará con James Reece (Rhys Meyers), un empleado de la embajada norteamericana, nada acostumbrado a los métodos poco ortodoxos de Wax.

Audio Español Latino EAC3 + AC3 2.0 AMZN – Ingles DTS-HD 7.1 Bluray

NOTA:
Disponible Solo para VIP!! 

Ficha técnica

Video trailer de la película

Enlaces de descarga

Rip de Bluray

Descargar Desde Paris Con Amor (2010) REMUX 1080p Latino


Aportes de DPeliculasHDmega la pass es:dpeliculashdmega.org Aportes de CinemaniaHD la pass es:cinemaniahdd.com
Guardado en : Acción , Crimen , Remux , Suspenso

Películas relacionadas

descargar Desde Paris Con Amor (2010) REMUX 1080p Latino Full 1080p 1080p gratis, Desde Paris Con Amor (2010) REMUX 1080p Latino Full 1080p mega 1 link, Desde Paris Con Amor (2010) REMUX 1080p Latino Full 1080p pelicula completa, descargar Desde Paris Con Amor (2010) REMUX 1080p Latino Full 1080p gratis en mega.

Desde Paris Con Amor (2010) REMUX 1080p Latino pelicula full hd, Desde Paris Con Amor (2010) REMUX 1080p Latino mega latino, Desde Paris Con Amor (2010) REMUX 1080p Latino 4k latino, Desde Paris Con Amor (2010) REMUX 1080p Latino pelicula completa, Desde Paris Con Amor (2010) REMUX 1080p Latino descargar gratis, descargar Desde Paris Con Amor (2010) REMUX 1080p Latino pelicula latino, Desde Paris Con Amor (2010) REMUX 1080p Latino 1 link mega, Desde Paris Con Amor (2010) REMUX 1080p Latino 1 link google drive, Desde Paris Con Amor (2010) REMUX 1080p Latino hd 1080p latino.
Comentarios 0