×

¿Problemas para descargar con Mozilla, EDGE? Deshabilita la opción "Abrir vinculos en una pestaña nueva" tal como lo muestra ésta imagen.

Desde Paris Con Amor (2010) 1080p Latino

181 vistas

Información de Desde Paris Con Amor (2010) 1080p Latino

Datos de la película

  • Calidad: 1080p
  • Audio: Español Latino AC3 2.0 WEB-DL - Ingles AC3 5.1 BLURAY
  • Subtitulos: Español Latino SRT - Ingles SRT
  • Resolución: 1920x832p
  • Formato: MKV
  • Codec: H.264
  • Encoder: CinefiloCool
  • Mediainfo: Clic para Mostrar Datos Ver
  • Paris En La Mira (2010) 1080p Latino-CMHDD.mkv
    Format                      : Matroska
    Format version              : Version 4
    File size                   : 3.35 GiB
    Duration                    : 1 h 32 min
    Overall bit rate            : 5 201 kb/s
    Movie name                  : From Paris with Love (2010) CinemaniaHDD.Net
    Encoded date                : UTC 2021-06-02 04:01:56
    Writing application         : mkvmerge v56.1.0 ('My Friend') 64-bit
    Writing library             : libebml v1.4.2 + libmatroska v1.6.4
    Attachments                 : CINEMANIAHD.png

    Video
    ID                          : 1
    Format                      : AVC
    Format/Info                 : Advanced Video Codec
    Format profile              : High@L4.1
    Format settings             : CABAC / 5 Ref Frames
    Format settings, CABAC      : Yes
    Format settings, Reference  : 5 frames
    Codec ID                    : V_MPEG4/ISO/AVC
    Duration                    : 1 h 32 min
    Bit rate                    : 4 500 kb/s
    Width                       : 1 920 pixels
    Height                      : 832 pixels
    Display aspect ratio        : 2.35:1
    Frame rate mode             : Constant
    Frame rate                  : 23.976 (24000/1001) FPS
    Color space                 : YUV
    Chroma subsampling          : 4:2:0
    Bit depth                   : 8 bits
    Scan type                   : Progressive
    Bits/(Pixel*Frame)          : 0.117
    Stream size                 : 2.90 GiB (86%)
    Title                       : HD1080p [CinemaniaHDD]
    Writing library             : x264 core 157 r2935 545de2f
    Encoding settings           : cabac=1 / ref=5 / deblock=1:-2:-2 / analyse=0x3:0x133 / me=umh / subme=9 / psy=1 / psy_rd=1.00:0.25 / mixed_ref=1 / me_range=16 / chroma_me=1 / trellis=2 / 8x8dct=1 / cqm=0 / deadzone=6,6 / fast_pskip=1 / chroma_qp_offset=-4 / threads=24 / lookahead_threads=2 / sliced_threads=0 / nr=0 / decimate=0 / interlaced=0 / bluray_compat=0 / constrained_intra=0 / bframes=3 / b_pyramid=2 / b_adapt=2 / b_bias=0 / direct=3 / weightb=1 / open_gop=0 / weightp=2 / keyint=240 / keyint_min=24 / scenecut=40 / intra_refresh=0 / rc_lookahead=60 / rc=2pass / mbtree=1 / bitrate=4500 / ratetol=1.0 / qcomp=0.80 / qpmin=0 / qpmax=69 / qpstep=4 / cplxblur=20.0 / qblur=0.5 / vbv_maxrate=62500 / vbv_bufsize=78125 / nal_hrd=none / filler=0 / ip_ratio=1.10 / aq=1:0.50
    Default                     : Yes
    Forced                      : No
    Color range                 : Limited
    Color primaries             : BT.709
    Transfer characteristics    : BT.709
    Matrix coefficients         : BT.709

    Audio #1
    ID                          : 2
    Format                      : AC-3
    Format/Info                 : Audio Coding 3
    Commercial name             : Dolby Digital
    Codec ID                    : A_AC3
    Duration                    : 1 h 32 min
    Bit rate mode               : Constant
    Bit rate                    : 256 kb/s
    Channel(s)                  : 2 channels
    Channel layout              : L R
    Sampling rate               : 48.0 kHz
    Frame rate                  : 31.250 FPS (1536 SPF)
    Compression mode            : Lossy
    Delay relative to video     : -1 ms
    Stream size                 : 169 MiB (5%)
    Title                       : Español Latino [CinemaniaHDD]
    Language                    : Spanish
    Service kind                : Complete Main
    Default                     : Yes
    Forced                      : Yes

    Audio #2
    ID                          : 3
    Format                      : AC-3
    Format/Info                 : Audio Coding 3
    Commercial name             : Dolby Digital
    Codec ID                    : A_AC3
    Duration                    : 1 h 32 min
    Bit rate mode               : Constant
    Bit rate                    : 448 kb/s
    Channel(s)                  : 6 channels
    Channel layout              : L R C LFE Ls Rs
    Sampling rate               : 48.0 kHz
    Frame rate                  : 31.250 FPS (1536 SPF)
    Compression mode            : Lossy
    Delay relative to video     : -1 ms
    Stream size                 : 296 MiB (9%)
    Title                       : Ingles [CinemaniaHDD]
    Language                    : English
    Service kind                : Complete Main
    Default                     : No
    Forced                      : No

    Text #1
    ID                          : 4
    Format                      : UTF-8
    Codec ID                    : S_TEXT/UTF8
    Codec ID/Info               : UTF-8 Plain Text
    Duration                    : 50 min 15 s
    Bit rate                    : 0 b/s
    Count of elements           : 4
    Stream size                 : 39.0 Bytes (0%)
    Title                       : Forzados-SRT [CinemaniaHDD]
    Language                    : Spanish
    Default                     : Yes
    Forced                      : Yes

    Text #2
    ID                          : 5
    Format                      : UTF-8
    Codec ID                    : S_TEXT/UTF8
    Codec ID/Info               : UTF-8 Plain Text
    Duration                    : 1 h 28 min
    Bit rate                    : 52 b/s
    Count of elements           : 1025
    Stream size                 : 33.9 KiB (0%)
    Title                       : Español-SRT [CinemaniaHDD]
    Language                    : Spanish
    Default                     : No
    Forced                      : No

    Text #3
    ID                          : 6
    Format                      : UTF-8
    Codec ID                    : S_TEXT/UTF8
    Codec ID/Info               : UTF-8 Plain Text
    Duration                    : 1 h 25 min
    Bit rate                    : 57 b/s
    Count of elements           : 903
    Stream size                 : 36.2 KiB (0%)
    Title                       : Ingles-SRT [CinemaniaHDD]
    Language                    : English
    Default                     : No
    Forced                      : No

    Menu
    00:00:00.000                : Checkmate
    00:06:41.484                : Dinner Plans
    00:10:17.491                : Listening In
    00:17:21.331                : Clearing Customs
    00:20:18.675                : Off The Menu
    00:24:47.819                : Something To Think About
    00:29:43.615                : Private Meeting
    00:37:39.340                : Side Effects
    00:44:23.452                : Blowing Deals
    00:49:37.516                : The Scenic Route
    00:53:12.230                : More Than You Think
    00:58:11.946                : Perfect Match
    01:05:33.429                : After Her
    01:12:38.771                : Heavy Metal
    01:18:35.043                : High Security
    01:25:38.925                : Slight Delay

  • Peso: 3.35 GiB

Sinopsis

Descargar Desde Paris Con Amor [Paris En La Mira] (2010) 1080p Latino. A Charlie Wax (John Travolta), un singular agente secreto estadounidense, le ha sido encomendada en París una misión de alto riesgo relacionada con el terrorismo y el tráfico de cocaína. El problema es que tropezará con James Reece (Rhys Meyers), un empleado de la embajada norteamericana, nada acostumbrado a los métodos poco ortodoxos de Wax.

Ficha técnica

Video trailer de la película

Enlaces de descarga

Rip de Bluray

Descargar Desde Paris Con Amor (2010) 1080p Latino




Aportes de DPeliculasHDmega la pass es:dpeliculashdmega.org Aportes de CinemaniaHD la pass es:cinemaniahdd.com
Guardado en : Acción , Crimen , HD 1080p , Suspenso

Películas relacionadas

  • Ajin: Semi-Humano (2017) AMZN WEB-DL 1080p Latino

    Ajin: Semi-Humano (2017) AMZN WEB-DL 1080p Latino

    2017
    Ajin: Semi-Humano (2017) AMZN WEB-DL 1080p Latino

    1h 50m 2017

    Descargar Ajin: Semi-Humano (2017) AMZN WEB-DL 1080p Latino. En el manga original, aparece una persona...

    Director: Toru Yamamoto

    Género: Acción

    Actores: Yuki Yamada

  • Ajin: Semi-Humano (2017) REMUX 1080p Latino

    Ajin: Semi-Humano (2017) REMUX 1080p Latino

    2017
    Ajin: Semi-Humano (2017) REMUX 1080p Latino

    1h 50m 2017

    Descargar Ajin: Semi-Humano (2017) REMUX 1080p Latino. En el manga original, aparece una persona inmortal...

    Director: Toru Yamamoto

    Género: Acción

    Actores: Yuki Yamada

  • Zola (2020) HD 1080p Latino

    Zola (2020) HD 1080p Latino

    2020
    Zola (2020) HD 1080p Latino

    1h 26m 2020

    Descargar Zola (2020) HD 1080p Latino. Una camarera accede a acompañar a una bailarina exótica, su...

    Director: Sheri Davani

    Género: Comedia

    Actores: Ts Madison

  • Zola (2020) PLACEBO Full HD 1080p Latino

    Zola (2020) PLACEBO Full HD 1080p Latino

    2020
    Zola (2020) PLACEBO Full HD 1080p Latino

    1h 26m 2020

    Descargar Zola (2020) PLACEBO Full HD 1080p Latino. Una camarera accede a acompañar a una bailarina...

    Director: Sheri Davani

    Género: Comedia

    Actores: Ts Madison

descargar Desde Paris Con Amor (2010) 1080p Latino 1080p 1080p gratis, Desde Paris Con Amor (2010) 1080p Latino 1080p mega 1 link, Desde Paris Con Amor (2010) 1080p Latino 1080p pelicula completa, descargar Desde Paris Con Amor (2010) 1080p Latino 1080p gratis en mega.

Desde Paris Con Amor (2010) 1080p Latino pelicula full hd, Desde Paris Con Amor (2010) 1080p Latino mega latino, Desde Paris Con Amor (2010) 1080p Latino 4k latino, Desde Paris Con Amor (2010) 1080p Latino pelicula completa, Desde Paris Con Amor (2010) 1080p Latino descargar gratis, descargar Desde Paris Con Amor (2010) 1080p Latino pelicula latino, Desde Paris Con Amor (2010) 1080p Latino 1 link mega, Desde Paris Con Amor (2010) 1080p Latino 1 link google drive, Desde Paris Con Amor (2010) 1080p Latino hd 1080p latino.
Comentarios 0