From a House on Willow Street (2017) 1080p Latino

1.791 vistas
1 estrella2 estrellas3 estrellas4 estrellas5 estrellas (2 votos, promedio: 4,00 de 5)
Cargando…

Información de From a House on Willow Street (2017) 1080p Latino

Datos de la película

  • Calidad: 1080p
  • Audio: Español Latino AC3 2.0 Capturado - Ingles AC3 5.1 BLURAY
  • Subtitulos: Español Latino SRT
  • Resolución: 1920x816p
  • Formato: MKV
  • Codec: H.264
  • Encoder: Dpelis
  • Mediainfo: Clic para Mostrar Datos Ver
  • From a House on Willow Street (2016) 1080p Latino.mkv
    Format                      : Matroska
    Format version              : Version 4 / Version 2
    File size                   : 2.38 GiB
    Duration                    : 1 h 26 min
    Overall bit rate            : 3 954 kb/s
    Movie name                  : DPelicualsHDMega.ORG
    Encoded date                : UTC 2017-10-06 00:23:58
    Writing application         : mkvmerge v10.0.0 ('To Drown In You') 64bit
    Writing library             : libebml v1.3.4 + libmatroska v1.4.5

    Video
    ID                          : 1
    Format                      : AVC
    Format/Info                 : Advanced Video Codec
    Format profile              : [email protected]
    Format settings, CABAC      : Yes
    Format settings, RefFrames  : 5 frames
    Codec ID                    : V_MPEG4/ISO/AVC
    Duration                    : 1 h 26 min
    Bit rate                    : 3 500 kb/s
    Width                       : 1 920 pixels
    Height                      : 816 pixels
    Display aspect ratio        : 2.35:1
    Frame rate mode             : Constant
    Frame rate                  : 23.976 (24000/1001) FPS
    Color space                 : YUV
    Chroma subsampling          : 4:2:0
    Bit depth                   : 8 bits
    Scan type                   : Progressive
    Bits/(Pixel*Frame)          : 0.093
    Stream size                 : 2.04 GiB (86%)
    Writing library             : x264 core 148 r2708 86b7198
    Encoding settings           : cabac=1 / ref=5 / deblock=1:0:0 / analyse=0x3:0x113 / me=umh / subme=8 / psy=1 / psy_rd=1.00:0.00 / mixed_ref=1 / me_range=16 / chroma_me=1 / trellis=1 / 8x8dct=1 / cqm=0 / deadzone=21,11 / fast_pskip=1 / chroma_qp_offset=-2 / threads=25 / lookahead_threads=4 / sliced_threads=0 / nr=0 / decimate=1 / interlaced=0 / bluray_compat=0 / constrained_intra=0 / bframes=3 / b_pyramid=2 / b_adapt=2 / b_bias=0 / direct=3 / weightb=1 / open_gop=0 / weightp=2 / keyint=240 / keyint_min=24 / scenecut=40 / intra_refresh=0 / rc_lookahead=50 / rc=abr / mbtree=1 / bitrate=3500 / ratetol=1.0 / qcomp=0.60 / qpmin=0 / qpmax=69 / qpstep=4 / vbv_maxrate=62500 / vbv_bufsize=78125 / nal_hrd=none / filler=0 / ip_ratio=1.40 / aq=1:1.00
    Default                     : Yes
    Forced                      : No
    Color range                 : Limited
    Color primaries             : BT.709
    Transfer characteristics    : BT.709
    Matrix coefficients         : BT.709

    Audio #1
    ID                          : 2
    Format                      : AC-3
    Format/Info                 : Audio Coding 3
    Format settings, Endianness : Big
    Codec ID                    : A_AC3
    Duration                    : 1 h 22 min
    Bit rate mode               : Constant
    Bit rate                    : 192 kb/s
    Channel(s)                  : 2 channels
    Channel positions           : Front: L R
    Sampling rate               : 48.0 kHz
    Frame rate                  : 31.250 FPS (1536 SPF)
    Bit depth                   : 16 bits
    Compression mode            : Lossy
    Delay relative to video     : -5 ms
    Stream size                 : 114 MiB (5%)
    Language                    : Spanish
    Service kind                : Complete Main
    Default                     : Yes
    Forced                      : No

    Audio #2
    ID                          : 3
    Format                      : AC-3
    Format/Info                 : Audio Coding 3
    Format settings, Endianness : Big
    Codec ID                    : A_AC3
    Duration                    : 1 h 26 min
    Bit rate mode               : Constant
    Bit rate                    : 384 kb/s
    Channel(s)                  : 6 channels
    Channel positions           : Front: L C R, Side: L R, LFE
    Sampling rate               : 48.0 kHz
    Frame rate                  : 31.250 FPS (1536 SPF)
    Bit depth                   : 16 bits
    Compression mode            : Lossy
    Delay relative to video     : -5 ms
    Stream size                 : 237 MiB (10%)
    Language                    : English
    Service kind                : Complete Main
    Default                     : No
    Forced                      : No

    Text
    ID                          : 4
    Format                      : UTF-8
    Codec ID                    : S_TEXT/UTF8
    Codec ID/Info               : UTF-8 Plain Text
    Duration                    : 1 h 21 min
    Bit rate                    : 34 b/s
    Count of elements           : 685
    Stream size                 : 20.5 KiB (0%)
    Default                     : Yes
    Forced                      : No

  • Peso: 2.28 GB

Sinopsis

Hazel enrola a un grupo de maleantes en un plan infalible para hacerse ricos de la noche a la mañana. Lo único que deben hacer es secuestrar a la hija de un millonario y esperar cómodamente el rescate. Lo que no podían prever la protagonista y sus esbirros es que la chica estaría poseída por un letal demonio.

Ficha técnica

  • Titulo original: From a House on Willow Street
  • Fecha de lanzamiento: 24-03-2017 (South Africa)
  • Director: Alastair Orr, Ariye Mahdeb
  • Género: Acción, Terror
  • Puntuación: 4.0 2 votos
  • Duración:
    1h 30m

Video trailer de la película

Enlaces de descarga

Rip de Bluray

Descargar From a House on Willow Street (2017) 1080p Latino




Aportes de DPeliculasHDmega la pass es:dpeliculashdmega.org Aportes de CinemaniaHD la pass es:cinemaniahdd.com
Guardado en : Acción , Terror

Películas relacionadas

  • The Final Wish (2018) Remux 1080p Subtitulado

    2019
    The Final Wish (2018) Remux 1080p Subtitulado

    5.0 1h 35m 2019

    Descargar The Final Wish (2018) Remux 1080p Subtitulado. Aaron (Michael Welch) es un abogado con problemas...

    Director: Timothy Woodward Jr.

    Género: Remux

    Actores: Tony Todd

  • The Final Wish (2018) Full 1080p Subtitulado

    2019
    The Final Wish (2018) Full 1080p Subtitulado

    0.0 1h 35m 2019

    Descargar The Final Wish (2018) Full 1080p Subtitulado. Aaron (Michael Welch) es un abogado con problemas...

    Director: Timothy Woodward Jr.

    Género: FULL 1080p Plateadas

    Actores: Tony Todd

  • La nave del terror (1997) Full 1080p Latino

    1997
    La nave del terror (1997) Full 1080p Latino

    5.0 1h 36m 1997

    En el año 2047 una nave de rescate, la "Lewis & Clark", es enviada a investigar la misteriosa reaparición...

    Director: Paul W.S. Anderson

    Género: Ciencia ficción

    Actores: Teresa May

  • Man On A Ledge (2012) Full (Open Matte) 1080P Latino

    2012
    Man On A Ledge (2012) Full (Open Matte) 1080P Latino

    5.0 1h 42m 2012

    Nick Cassidy (Sam Worthington), un antiguo agente de policía, se escapa de la cárcel y se dirige al...

    Director: Melissa Kalbfus

    Género: Acción

    Actores: William Sadler

Comentarios 0