×

¿Problemas para descargar con Mozilla, EDGE? Deshabilita la opción "Abrir vinculos en una pestaña nueva" tal como lo muestra ésta imagen.

From (2023) Segunda Temporada AMZN WEB-DL 1080p Latino

779 vistas

Información de From (2023) Segunda Temporada AMZN WEB-DL 1080p Latino

Datos de la película

  • Calidad: 1080p
  • Audio: Español Latino AC3 2.0 WEB-DL - Ingles AC3 5.1 WEB-DL
  • Subtitulos: Español Latino SRT- FORZADOS SRT
  • Resolución: 1920x1080
  • Formato: MKV
  • Codec: H.264
  • Encoder: cinemaniahdd
  • Mediainfo: Clic para Mostrar Datos Ver
  • From T02E01 AMZN WEB-DL 1080p Latino [CNMNHDD].mkv
    Format                      : Matroska
    Format version              : Version 4
    File size                   : 2.50 GiB
    Duration                    : 47 min 26 s
    Overall bit rate            : 7 535 kb/s
    Movie name                  : From S02E01 - Strangers in a Strange Land [1080p] - CinemaniaHDD.Net
    Encoded date                : UTC 2023-10-16 02:38:48
    Writing application         : mkvmerge v56.1.0 ('My Friend') 64-bit
    Writing library             : libebml v1.4.2 + libmatroska v1.6.4

    Video
    ID                          : 1
    Format                      : AVC
    Format/Info                 : Advanced Video Codec
    Format profile              : High@L4
    Format settings             : CABAC / 4 Ref Frames
    Format settings, CABAC      : Yes
    Format settings, Reference  : 4 frames
    Codec ID                    : V_MPEG4/ISO/AVC
    Duration                    : 47 min 26 s
    Bit rate mode               : Constant
    Bit rate                    : 6 509 kb/s
    Nominal bit rate            : 10 000 kb/s
    Width                       : 1 920 pixels
    Height                      : 1 080 pixels
    Display aspect ratio        : 16:9
    Frame rate mode             : Constant
    Frame rate                  : 23.976 (24000/1001) FPS
    Color space                 : YUV
    Chroma subsampling          : 4:2:0
    Bit depth                   : 8 bits
    Scan type                   : Progressive
    Bits/(Pixel*Frame)          : 0.131
    Stream size                 : 2.16 GiB (86%)
    Title                       : CinemaniaHDD
    Default                     : Yes
    Forced                      : No
    Color range                 : Limited
    Color primaries             : BT.709
    Transfer characteristics    : BT.709
    Matrix coefficients         : BT.709

    Audio #1
    ID                          : 2
    Format                      : AC-3
    Format/Info                 : Audio Coding 3
    Commercial name             : Dolby Digital
    Codec ID                    : A_AC3
    Duration                    : 47 min 26 s
    Bit rate mode               : Constant
    Bit rate                    : 384 kb/s
    Channel(s)                  : 2 channels
    Channel layout              : L R
    Sampling rate               : 48.0 kHz
    Frame rate                  : 31.250 FPS (1536 SPF)
    Compression mode            : Lossy
    Stream size                 : 130 MiB (5%)
    Title                       : Español Latino [CinemaniaHDD]
    Language                    : Spanish
    Service kind                : Complete Main
    Default                     : Yes
    Forced                      : No

    Audio #2
    ID                          : 3
    Format                      : E-AC-3
    Format/Info                 : Enhanced AC-3
    Commercial name             : Dolby Digital Plus
    Codec ID                    : A_EAC3
    Duration                    : 47 min 26 s
    Bit rate mode               : Constant
    Bit rate                    : 640 kb/s
    Channel(s)                  : 6 channels
    Channel layout              : L R C LFE Ls Rs
    Sampling rate               : 48.0 kHz
    Frame rate                  : 31.250 FPS (1536 SPF)
    Compression mode            : Lossy
    Stream size                 : 217 MiB (8%)
    Title                       : Inglés [CinemaniaHDD]
    Language                    : English
    Service kind                : Complete Main
    Default                     : No
    Forced                      : No

    Text #1
    ID                          : 4
    Format                      : UTF-8
    Codec ID                    : S_TEXT/UTF8
    Codec ID/Info               : UTF-8 Plain Text
    Duration                    : 5 min 53 s
    Bit rate                    : 1 b/s
    Count of elements           : 4
    Stream size                 : 72.0 Bytes (0%)
    Title                       : Forzados [CinemaniaHDD]
    Language                    : Spanish
    Default                     : Yes
    Forced                      : Yes

    Text #2
    ID                          : 5
    Format                      : UTF-8
    Codec ID                    : S_TEXT/UTF8
    Codec ID/Info               : UTF-8 Plain Text
    Duration                    : 46 min 6 s
    Bit rate                    : 59 b/s
    Count of elements           : 700
    Stream size                 : 20.1 KiB (0%)
    Title                       : Español Latino [CinemaniaHDD]
    Language                    : Spanish
    Default                     : No
    Forced                      : No

    Text #3
    ID                          : 6
    Format                      : UTF-8
    Codec ID                    : S_TEXT/UTF8
    Codec ID/Info               : UTF-8 Plain Text
    Duration                    : 46 min 7 s
    Bit rate                    : 71 b/s
    Count of elements           : 861
    Stream size                 : 24.1 KiB (0%)
    Title                       : Inglés [CinemaniaHDD]
    Language                    : English
    Default                     : No
    Forced                      : No

     

     

  • Peso: 2.50 GiB Aprox ---- 27 GiB in 10 Chapters.

Sinopsis

Desvela el misterio de un pueblo de pesadilla en el centro de Norteamérica que atrapa a todos los que entran. Mientras los residentes involuntarios luchan por mantener una sensación de normalidad y buscan una salida, también deben sobrevivir a las amenazas del bosque circundante, incluidas las aterradoras criaturas que salen cuando se pone el sol.

Re-subido

Ficha técnica

Video trailer de la película

Enlaces de descarga

Rip de Bluray

Descargar From (2023) Segunda Temporada AMZN WEB-DL 1080p Latino




Aportes de DPeliculasHDmega la pass es:dpeliculashdmega.org Aportes de CinemaniaHD la pass es:cinemaniahdd.com Aportes recientes:cinemaniahdd.net
Guardado en : Drama , Misterio , Sci-Fi & Fantasy , Series

Películas relacionadas

descargar From (2023) Segunda Temporada AMZN WEB-DL 1080p Latino 1080p 1080p gratis, From (2023) Segunda Temporada AMZN WEB-DL 1080p Latino 1080p mega 1 link, From (2023) Segunda Temporada AMZN WEB-DL 1080p Latino 1080p serie completa, descargar From (2023) Segunda Temporada AMZN WEB-DL 1080p Latino 1080p gratis en mega.

From (2023) Segunda Temporada AMZN WEB-DL 1080p Latino pelicula full hd, From (2023) Segunda Temporada AMZN WEB-DL 1080p Latino mega latino, From (2023) Segunda Temporada AMZN WEB-DL 1080p Latino 4k latino, From (2023) Segunda Temporada AMZN WEB-DL 1080p Latino pelicula completa, From (2023) Segunda Temporada AMZN WEB-DL 1080p Latino descargar gratis, descargar From (2023) Segunda Temporada AMZN WEB-DL 1080p Latino pelicula latino, From (2023) Segunda Temporada AMZN WEB-DL 1080p Latino 1 link mega, From (2023) Segunda Temporada AMZN WEB-DL 1080p Latino 1 link google drive, From (2023) Segunda Temporada AMZN WEB-DL 1080p Latino hd 1080p latino.
Comentarios 0