×

¿Problemas para descargar con Mozilla, EDGE? Deshabilita la opción "Abrir vinculos en una pestaña nueva" tal como lo muestra ésta imagen.

Mortal Kombat Legends: Frio y Penumbra (2022) REMUX 1080p Latino

55 vistas

Información de Mortal Kombat Legends: Frio y Penumbra (2022) REMUX 1080p Latino

Datos de la película

  • Calidad: Full 1080p
  • Audio: Español Latino AC3 5.1 BLURAY - Ingles DTS 5.1 BLURAY
  • Subtitulos: Español Latino PGS - Ingles PGS
  • Resolución: 1920x1080p
  • Formato: MKV
  • Codec: H.264
  • Encoder: Melkor
  • Mediainfo: Clic para Mostrar Datos Ver
  • MK Legends Frio y Penumbra (2022) REMUX 1080p Latino.mkv
    Format                      : Matroska
    Format version              : Version 4
    File size                   : 10.4 GiB
    Duration                    : 1 h 21 min
    Overall bit rate mode       : Variable
    Overall bit rate            : 18.1 Mb/s
    Movie name                  : Mortal Kombat Legends. Snow Blind (2022) CinemaniaHDD.Net
    Encoded date                : UTC 2022-09-29 19:38:03
    Writing application         : mkvmerge v56.1.0 ('My Friend') 64-bit
    Writing library             : libebml v1.4.2 + libmatroska v1.6.4
    Attachments                 : CINEMANIAHD.png

    Video
    ID                          : 1
    ID in the original source m : 4113 (0x1011)
    Format                      : AVC
    Format/Info                 : Advanced Video Codec
    Format profile              : High@L4.1
    Format settings             : CABAC / 4 Ref Frames
    Format settings, CABAC      : Yes
    Format settings, Reference  : 4 frames
    Codec ID                    : V_MPEG4/ISO/AVC
    Duration                    : 1 h 21 min
    Bit rate mode               : Variable
    Bit rate                    : 15.1 Mb/s
    Maximum bit rate            : 37.0 Mb/s
    Width                       : 1 920 pixels
    Height                      : 1 080 pixels
    Display aspect ratio        : 16:9
    Frame rate mode             : Constant
    Frame rate                  : 23.976 (24000/1001) FPS
    Color space                 : YUV
    Chroma subsampling          : 4:2:0
    Bit depth                   : 8 bits
    Scan type                   : Progressive
    Bits/(Pixel*Frame)          : 0.303
    Stream size                 : 8.62 GiB (83%)
    Title                       : REMUX HD1080p [CinemaniaHDD]
    Default                     : Yes
    Forced                      : Yes
    Original source medium      : Blu-ray

    Audio #1
    ID                          : 2
    ID in the original source m : 4355 (0x1103)
    Format                      : AC-3
    Format/Info                 : Audio Coding 3
    Commercial name             : Dolby Digital
    Codec ID                    : A_AC3
    Duration                    : 1 h 21 min
    Bit rate mode               : Constant
    Bit rate                    : 640 kb/s
    Channel(s)                  : 6 channels
    Channel layout              : L R C LFE Ls Rs
    Sampling rate               : 48.0 kHz
    Frame rate                  : 31.250 FPS (1536 SPF)
    Compression mode            : Lossy
    Stream size                 : 375 MiB (4%)
    Title                       : Español Latino [CinemaniaHDD]
    Language                    : Spanish
    Service kind                : Complete Main
    Default                     : Yes
    Forced                      : Yes
    Original source medium      : Blu-ray

    Audio #2
    ID                          : 3
    ID in the original source m : 4352 (0x1100)
    Format                      : DTS XLL
    Format/Info                 : Digital Theater Systems
    Commercial name             : DTS-HD Master Audio
    Codec ID                    : A_DTS
    Duration                    : 1 h 21 min
    Bit rate mode               : Variable
    Bit rate                    : 2 416 kb/s
    Channel(s)                  : 6 channels
    Channel layout              : C L R Ls Rs LFE
    Sampling rate               : 48.0 kHz
    Frame rate                  : 93.750 FPS (512 SPF)
    Bit depth                   : 24 bits
    Compression mode            : Lossless
    Stream size                 : 1.38 GiB (13%)
    Title                       : Ingles [CinemaniaHDD]
    Language                    : English
    Default                     : No
    Forced                      : No
    Original source medium      : Blu-ray

    Text #1
    ID                          : 4
    ID in the original source m : 4611 (0x1203)
    Format                      : PGS
    Muxing mode                 : zlib
    Codec ID                    : S_HDMV/PGS
    Codec ID/Info               : Picture based subtitle format used on BDs/HD-DVDs
    Duration                    : 1 h 21 min
    Bit rate                    : 20.5 kb/s
    Count of elements           : 1450
    Stream size                 : 11.9 MiB (0%)
    Title                       : Español-PGS [CinemaniaHDD]
    Language                    : Spanish
    Default                     : No
    Forced                      : No
    Original source medium      : Blu-ray

    Text #2
    ID                          : 5
    ID in the original source m : 4608 (0x1200)
    Format                      : PGS
    Muxing mode                 : zlib
    Codec ID                    : S_HDMV/PGS
    Codec ID/Info               : Picture based subtitle format used on BDs/HD-DVDs
    Duration                    : 1 h 18 min
    Bit rate                    : 30.1 kb/s
    Count of elements           : 2366
    Stream size                 : 16.9 MiB (0%)
    Title                       : Ingles [CinemaniaHDD]
    Language                    : English
    Default                     : No
    Forced                      : No
    Original source medium      : Blu-ray

    Text #3
    ID                          : 6
    Format                      : UTF-8
    Codec ID                    : S_TEXT/UTF8
    Codec ID/Info               : UTF-8 Plain Text
    Duration                    : 2 s 326 ms
    Bit rate                    : 113 b/s
    Count of elements           : 1
    Stream size                 : 33.0 Bytes (0%)
    Title                       : Forzados-SRT [CinemaniaHDD]
    Language                    : Spanish
    Default                     : Yes
    Forced                      : Yes

    Text #4
    ID                          : 7
    Format                      : UTF-8
    Codec ID                    : S_TEXT/UTF8
    Codec ID/Info               : UTF-8 Plain Text
    Duration                    : 1 h 19 min
    Bit rate                    : 36 b/s
    Count of elements           : 736
    Stream size                 : 21.4 KiB (0%)
    Title                       : Español-SRT [CinemaniaHDD]
    Language                    : Spanish
    Default                     : No
    Forced                      : No

    Menu
    00:00:00.000                : Chapter 01
    00:05:10.601                : Chapter 02
    00:12:24.201                : Chapter 03
    00:16:32.241                : Chapter 04
    00:24:45.692                : Chapter 05
    00:30:57.564                : Chapter 06
    00:38:30.474                : Chapter 07
    00:45:42.781                : Chapter 08
    00:55:27.115                : Chapter 09
    01:05:02.899                : Chapter 10
    01:11:51.724                : Chapter 11
    01:18:50.350                : Chapter 12

  • Peso: 10.4 GiB

Sinopsis

Descargar Mortal Kombat Legends: Frio y Penumbra (2022) REMUX 1080p Latino. Mientras Kano y el resto del clan Black Dragon causan estragos en todo el mundo, un joven guerrero llamado Kenshi tendrá que elevarse por encima de sus propias limitaciones y asumir la inminente amenaza de Outworld

Ficha técnica

Video trailer de la película

Enlaces de descarga

Rip de Bluray

Descargar Mortal Kombat Legends: Frio y Penumbra (2022) REMUX 1080p Latino




Aportes de DPeliculasHDmega la pass es:dpeliculashdmega.org Aportes de CinemaniaHD la pass es:cinemaniahdd.com
Guardado en : Acción , Animación , Fantasía , Remux

Películas relacionadas

descargar Mortal Kombat Legends: Frio y Penumbra (2022) REMUX 1080p Latino Full 1080p 1080p gratis, Mortal Kombat Legends: Frio y Penumbra (2022) REMUX 1080p Latino Full 1080p mega 1 link, Mortal Kombat Legends: Frio y Penumbra (2022) REMUX 1080p Latino Full 1080p pelicula completa, descargar Mortal Kombat Legends: Frio y Penumbra (2022) REMUX 1080p Latino Full 1080p gratis en mega.

Mortal Kombat Legends: Frio y Penumbra (2022) REMUX 1080p Latino pelicula full hd, Mortal Kombat Legends: Frio y Penumbra (2022) REMUX 1080p Latino mega latino, Mortal Kombat Legends: Frio y Penumbra (2022) REMUX 1080p Latino 4k latino, Mortal Kombat Legends: Frio y Penumbra (2022) REMUX 1080p Latino pelicula completa, Mortal Kombat Legends: Frio y Penumbra (2022) REMUX 1080p Latino descargar gratis, descargar Mortal Kombat Legends: Frio y Penumbra (2022) REMUX 1080p Latino pelicula latino, Mortal Kombat Legends: Frio y Penumbra (2022) REMUX 1080p Latino 1 link mega, Mortal Kombat Legends: Frio y Penumbra (2022) REMUX 1080p Latino 1 link google drive, Mortal Kombat Legends: Frio y Penumbra (2022) REMUX 1080p Latino hd 1080p latino.
Comentarios 0