×

¿Problemas para descargar con Mozilla, EDGE? Deshabilita la opción "Abrir vinculos en una pestaña nueva" tal como lo muestra ésta imagen.

Amigos con beneficios (2011) REMUX 1080p Latino

177 vistas

Información de Amigos con beneficios (2011) REMUX 1080p Latino

Datos de la película

  • Calidad: Full 1080p
  • Audio: Español Latino AC3 5.1 BLURAY - Ingles DTS 5.1 BLURAY
  • Subtitulos: Español Latino PGS - Ingles PGS
  • Resolución: 1920x1080p
  • Formato: MKV
  • Codec: H.264
  • Encoder: CinefiloCool
  • Mediainfo: Clic para Mostrar Datos Ver
  • Amigos Con Beneficios (2011) REMUX 1080p Latino-CMHDD.mkv
    Format                      : Matroska
    Format version              : Version 4
    File size                   : 21.2 GiB
    Duration                    : 1 h 49 min
    Overall bit rate mode       : Variable
    Overall bit rate            : 27.8 Mb/s
    Movie name                  : Friends with Benefits (2011) CinemaniaHDD.Net
    Encoded date                : UTC 2021-01-19 07:22:14
    Writing application         : mkvmerge v51.0.0 ('I Wish') 64-bit
    Writing library             : libebml v1.4.0 + libmatroska v1.6.2
    Attachments                 : CINEMANIAHD.png

    Video
    ID                          : 1
    ID in the original source m : 4113 (0x1011)
    Format                      : AVC
    Format/Info                 : Advanced Video Codec
    Format profile              : High@L4.1
    Format settings             : CABAC / 2 Ref Frames
    Format settings, CABAC      : Yes
    Format settings, Reference  : 2 frames
    Codec ID                    : V_MPEG4/ISO/AVC
    Duration                    : 1 h 49 min
    Bit rate mode               : Variable
    Bit rate                    : 24.9 Mb/s
    Width                       : 1 920 pixels
    Height                      : 1 080 pixels
    Display aspect ratio        : 16:9
    Frame rate mode             : Constant
    Frame rate                  : 23.976 (24000/1001) FPS
    Color space                 : YUV
    Chroma subsampling          : 4:2:0
    Bit depth                   : 8 bits
    Scan type                   : Progressive
    Bits/(Pixel*Frame)          : 0.501
    Stream size                 : 19.1 GiB (90%)
    Title                       : REMUX HD1080p [CinemaniaHDD]
    Default                     : Yes
    Forced                      : No
    Original source medium      : Blu-ray

    Audio #1
    ID                          : 2
    ID in the original source m : 4354 (0x1102)
    Format                      : AC-3
    Format/Info                 : Audio Coding 3
    Commercial name             : Dolby Digital
    Codec ID                    : A_AC3
    Duration                    : 1 h 49 min
    Bit rate mode               : Constant
    Bit rate                    : 640 kb/s
    Channel(s)                  : 6 channels
    Channel layout              : L R C LFE Ls Rs
    Sampling rate               : 48.0 kHz
    Frame rate                  : 31.250 FPS (1536 SPF)
    Compression mode            : Lossy
    Stream size                 : 501 MiB (2%)
    Title                       : Español Latino [CinemaniaHDD]
    Language                    : Spanish
    Service kind                : Complete Main
    Default                     : Yes
    Forced                      : No
    Original source medium      : Blu-ray

    Audio #2
    ID                          : 3
    ID in the original source m : 4352 (0x1100)
    Format                      : DTS XLL
    Format/Info                 : Digital Theater Systems
    Commercial name             : DTS-HD Master Audio
    Codec ID                    : A_DTS
    Duration                    : 1 h 49 min
    Bit rate mode               : Variable
    Bit rate                    : 2 172 kb/s
    Channel(s)                  : 6 channels
    Channel layout              : C L R Ls Rs LFE
    Sampling rate               : 48.0 kHz
    Frame rate                  : 93.750 FPS (512 SPF)
    Bit depth                   : 16 bits
    Compression mode            : Lossless
    Stream size                 : 1.66 GiB (8%)
    Title                       : Ingles [CinemaniaHDD]
    Language                    : English
    Default                     : No
    Forced                      : No
    Original source medium      : Blu-ray

    Text #1
    ID                          : 4
    ID in the original source m : 4611 (0x1203)
    Format                      : PGS
    Muxing mode                 : zlib
    Codec ID                    : S_HDMV/PGS
    Codec ID/Info               : Picture based subtitle format used on BDs/HD-DVDs
    Duration                    : 1 h 49 min
    Bit rate                    : 49.7 kb/s
    Count of elements           : 3846
    Stream size                 : 38.8 MiB (0%)
    Title                       : Español-PGS [CinemaniaHDD]
    Language                    : Spanish
    Default                     : No
    Forced                      : No
    Original source medium      : Blu-ray

    Text #2
    ID                          : 5
    ID in the original source m : 4609 (0x1201)
    Format                      : PGS
    Muxing mode                 : zlib
    Codec ID                    : S_HDMV/PGS
    Codec ID/Info               : Picture based subtitle format used on BDs/HD-DVDs
    Duration                    : 1 h 49 min
    Bit rate                    : 59.0 kb/s
    Count of elements           : 3932
    Stream size                 : 46.1 MiB (0%)
    Title                       : Ingles-PGS [CinemaniaHDD]
    Language                    : Spanish
    Default                     : No
    Forced                      : No
    Original source medium      : Blu-ray

    Text #3
    ID                          : 6
    Format                      : UTF-8
    Codec ID                    : S_TEXT/UTF8
    Codec ID/Info               : UTF-8 Plain Text
    Duration                    : 13 min 43 s
    Bit rate                    : 0 b/s
    Count of elements           : 2
    Stream size                 : 39.0 Bytes (0%)
    Title                       : Forzados-SRT [CinemaniaHDD]
    Language                    : Spanish
    Default                     : Yes
    Forced                      : No

    Text #4
    ID                          : 7
    Format                      : UTF-8
    Codec ID                    : S_TEXT/UTF8
    Codec ID/Info               : UTF-8 Plain Text
    Duration                    : 1 h 49 min
    Bit rate                    : 75 b/s
    Count of elements           : 1886
    Stream size                 : 60.5 KiB (0%)
    Title                       : Español-SRT [CinemaniaHDD]
    Language                    : Spanish
    Default                     : No
    Forced                      : No

    Menu
    00:00:00.000                : en:Chapter 01
    00:05:23.698                : en:Chapter 02
    00:12:34.211                : en:Chapter 03
    00:17:42.686                : en:Chapter 04
    00:24:20.917                : en:Chapter 05
    00:32:57.225                : en:Chapter 06
    00:41:28.819                : en:Chapter 07
    00:45:45.868                : en:Chapter 08
    00:54:45.407                : en:Chapter 09
    00:58:58.868                : en:Chapter 10
    01:03:57.041                : en:Chapter 11
    01:13:44.753                : en:Chapter 12
    01:20:59.729                : en:Chapter 13
    01:27:09.599                : en:Chapter 14
    01:32:09.649                : en:Chapter 15
    01:38:30.321                : en:Chapter 16

  • Peso: 21.2 GiB

Sinopsis

Descargar Amigos con beneficios (2011) REMUX 1080p Latino. Jamie es una joven cazatalentos que convence a Dylan para que se vaya a trabajar a Nueva York como director artístico de la revista GQ. Una vez allí los dos, solteros y atractivos, entablan una relación estrictamente sexual sin dejar por ello de ser amigos. Naturalmente, esta anómala relación no les traerá más que complicaciones.

Ficha técnica

  • Titulo original: Friends with Benefits
  • Fecha de lanzamiento: 21-07-2011 (United States of America)
  • Director: Will Gluck
  • Género: Comedia, Remux, Romance

Video trailer de la película

Enlaces de descarga

Rip de Bluray

Descargar Amigos con beneficios (2011) REMUX 1080p Latino




Aportes de DPeliculasHDmega la pass es:dpeliculashdmega.org Aportes de CinemaniaHD la pass es:cinemaniahdd.com
Guardado en : Comedia , Remux , Romance

Películas relacionadas

  • Men in Black (1997) REMUX 4K HDR Latino – CMHDD

    Men in Black (1997) REMUX 4K HDR Latino – CMHDD

    1997
    Men in Black (1997) REMUX 4K HDR Latino – CMHDD

    1h 34m 1997

    Durante muchos años los extraterrestres han vivido en la Tierra, mezclados con los humanos, sin que...

    Director: Tyrone S. Walker

    Género: Acción

    Actores: Willie C. Carpenter

  • Borrego: Sal Del Camino (2022) REMUX 1080p Latino

    Borrego: Sal Del Camino (2022) REMUX 1080p Latino

    2022
    Borrego: Sal Del Camino (2022) REMUX 1080p Latino

    1h 42m 2022

    Descargar Borrego: Sal Del Camino (2022) REMUX 1080p Latino. Una joven botánica se traslada a un pequeño...

    Director: Jesse Harris

    Género: Crimen

    Actores: Olivia Trujillo

  • Tren Bala (2022) WEB-DL 4K UHD HDR Latino

    Tren Bala (2022) WEB-DL 4K UHD HDR Latino

    2022
    Tren Bala (2022) WEB-DL 4K UHD HDR Latino

    2h 7m 2022

    Descargar Tren Bala (2022) WEB-DL 4K UHD HDR Latino. El desafortunado asesino "Catarina" está decidido...

    Director: Paul Barry

    Género: 4K HDR

    Actores: Zooey Miyoshi

  • Tren Bala (2022) AMZN WEB-DL 1080p Latino

    Tren Bala (2022) AMZN WEB-DL 1080p Latino

    2022
    Tren Bala (2022) AMZN WEB-DL 1080p Latino

    2h 7m 2022

    Descargar Tren Bala (2022) AMZN WEB-DL 1080p Latino. Cinco asesinos a sueldo se encuentran a bordo de...

    Director: Paul Barry

    Género: Acción

    Actores: Zooey Miyoshi

descargar Amigos con beneficios (2011) REMUX 1080p Latino Full 1080p 1080p gratis, Amigos con beneficios (2011) REMUX 1080p Latino Full 1080p mega 1 link, Amigos con beneficios (2011) REMUX 1080p Latino Full 1080p pelicula completa, descargar Amigos con beneficios (2011) REMUX 1080p Latino Full 1080p gratis en mega.

Amigos con beneficios (2011) REMUX 1080p Latino pelicula full hd, Amigos con beneficios (2011) REMUX 1080p Latino mega latino, Amigos con beneficios (2011) REMUX 1080p Latino 4k latino, Amigos con beneficios (2011) REMUX 1080p Latino pelicula completa, Amigos con beneficios (2011) REMUX 1080p Latino descargar gratis, descargar Amigos con beneficios (2011) REMUX 1080p Latino pelicula latino, Amigos con beneficios (2011) REMUX 1080p Latino 1 link mega, Amigos con beneficios (2011) REMUX 1080p Latino 1 link google drive, Amigos con beneficios (2011) REMUX 1080p Latino hd 1080p latino.
Comentarios 0